<?xml version="1.0" standalone="no"?>
<!DOCTYPE svg PUBLIC "-//W3C//DTD SVG 1.1//EN" "http://www.w3.org/Graphics/SVG/1.1/DTD/svg11.dtd" >
<svg xmlns="http://www.w3.org/2000/svg" xmlns:xlink="http://www.w3.org/1999/xlink" version="1.1">
<metadata>
Created by FontForge 20170924 at Thu Jan 11 00:53:36 2007
 By www-data
(c) 2007 Adobe Systems Incorporated. All rights reserved.
</metadata>
<defs>
<font id="ArnoPro-BoldItalic" horiz-adv-x="505" >
  <font-face 
    font-family="ArnoPro"
    font-weight="700"
    font-style="italic"
    font-stretch="normal"
    units-per-em="1000"
    panose-1="2 2 8 2 5 5 6 9 4 3"
    ascent="678"
    descent="-322"
    x-height="416"
    cap-height="606"
    bbox="-196.359 -370 1515 891"
    underline-thickness="50"
    underline-position="-100"
    slope="-11"
    stemh="38"
    stemv="130"
    unicode-range="U+0020-FB06"
  />
<missing-glyph horiz-adv-x="500" 
d="M-30 0v700h500v-700h-500zM220 395l170 255h-340zM250 350l170 -255v510zM50 50h340l-170 255zM20 605v-510l170 255z" />
    <glyph glyph-name="R_A" unicode="RA" horiz-adv-x="1172" 
d="M84 573c-2 5 2 31 4 34c31 0 115 -4 147 -4c70 0 132 2 170 2c116 0 169 -62 169 -139c0 -86 -71 -141 -148 -167c-2 -1 -4 -5 -2 -7c19 -39 94 -165 140 -218c7 -8 21 -18 36 -20c5 -1 10 2 15 10c81 140 218 405 251 475c11 21 21 48 28 66c7 0 27 -2 47 -2
c21 0 39 2 46 2c1 -16 5 -39 8 -56c18 -96 56 -326 76 -415c19 -86 24 -92 99 -103c3 -4 1 -30 -5 -34c-25 0 -103 3 -144 3c-83 -1 -92 -2 -149 -3c-3 6 -3 30 1 34c12 1 46 6 55 12c10 7 12 18 12 22c-1 32 -16 117 -22 148c0 3 -3 7 -7 7c-16 2 -51 2 -77 2
c-37 0 -59 0 -72 -1c-4 0 -7 -3 -11 -8l-86 -166c-3 -7 0 -11 4 -11c4 -1 10 -2 16 -2c6 -7 -1 -30 -8 -36c-22 -4 -90 -3 -102 -3c-82 2 -125 7 -164 59c-32 43 -75 128 -107 190c-8 13 -16 25 -26 25c-5 1 -10 1 -16 1c-2 0 -6 -5 -6 -7c-11 -62 -18 -119 -26 -175
c-3 -29 5 -44 24 -49c18 -5 30 -6 54 -10c4 -5 -2 -28 -7 -33c-47 0 -105 4 -136 4c-66 0 -138 -3 -171 -4c-2 8 -1 28 4 33c13 2 39 6 52 9c22 5 33 16 40 48c23 106 62 362 71 435c3 22 -3 37 -19 42c-13 4 -37 8 -58 10zM435 452c0 68 -37 111 -98 111
c-4 0 -21 -1 -25 -3c-5 -2 -8 -7 -10 -12c-12 -65 -27 -160 -39 -234c-1 -5 3 -8 6 -8c51 -1 82 8 98 16c38 18 68 53 68 130zM874 463c-29 -62 -70 -137 -91 -184c-1 -2 0 -6 3 -7c10 -1 32 -1 59 -1c36 0 53 0 60 1c2 0 4 2 4 5c-5 31 -20 131 -31 186h-4z" />
    <glyph glyph-name="K_A" unicode="KA" horiz-adv-x="1188" 
d="M449 573c-2 7 3 28 6 33c39 0 84 -3 116 -3c57 1 103 3 138 3c2 -4 -1 -28 -6 -34c-62 -9 -89 -21 -138 -68l-170 -165l-1 -5c28 -51 87 -139 138 -204c32 -41 58 -67 78 -74c2 -2 8 -2 11 3c83 141 235 411 268 480c11 20 22 46 29 66c7 0 27 -2 46 -2c22 0 40 2 47 2
c1 -18 4 -39 7 -56c17 -96 54 -327 74 -416c17 -86 20 -91 94 -102c3 -4 1 -30 -4 -34c-25 0 -101 3 -143 3c-82 -1 -92 -2 -149 -3c-3 6 -2 30 2 34c15 2 45 6 55 12c9 7 13 18 13 22c-2 32 -16 117 -20 148c-1 3 -4 7 -8 7c-16 2 -59 2 -84 2c-38 0 -59 0 -72 -1
c-4 0 -7 -3 -11 -8c-20 -37 -68 -125 -88 -167c-2 -3 -2 -9 1 -10c6 -3 24 -4 33 -5c4 -5 -1 -30 -5 -34c-48 -6 -198 -4 -229 11c-26 12 -43 25 -59 45c-38 47 -103 152 -138 210c-1 2 -8 15 -12 20c-1 3 3 13 5 15c43 22 113 82 193 170c33 37 47 60 48 73
c1 7 -5 17 -18 21c-12 4 -19 7 -47 11zM89 573c-1 5 2 28 6 33c36 0 65 -3 143 -3c68 0 114 4 151 4c3 -6 1 -29 -4 -35c-20 -3 -34 -5 -51 -9c-20 -6 -27 -21 -33 -50c-23 -125 -53 -317 -67 -421c-3 -26 1 -46 23 -51c13 -4 35 -6 55 -10c2 -4 -3 -31 -8 -34
c-47 0 -102 3 -154 3c-53 -1 -120 -3 -153 -3c-3 5 0 30 4 34c22 5 38 6 52 9c24 6 35 20 43 62c15 77 57 337 66 415c3 24 -3 40 -19 45c-11 4 -35 8 -54 11zM896 463c-30 -62 -72 -137 -94 -184c-1 -2 0 -6 2 -7c11 -1 36 -1 63 -1c36 0 53 0 60 1c2 0 4 3 4 6
c-5 32 -21 130 -31 185h-4z" />
    <glyph glyph-name="T_T" unicode="TT" horiz-adv-x="1064" 
d="M97 434c-5 -2 -30 5 -34 13c15 41 39 117 48 164c1 3 5 6 7 6c30 -9 66 -14 91 -14h769c33 0 71 1 111 11c3 -1 7 -8 6 -10c-19 -50 -30 -102 -45 -169c-5 -5 -33 -6 -36 0c-2 29 -5 56 -9 79c-4 24 -20 38 -36 38c-22 1 -69 3 -92 1c-2 -1 -8 -5 -8 -9
c-17 -95 -60 -379 -69 -459c-1 -20 0 -35 20 -42c15 -5 41 -9 74 -12c3 -6 -2 -30 -6 -34c-58 0 -112 3 -169 3s-117 -3 -173 -3c-1 7 2 28 6 34c28 3 49 6 62 9c27 6 36 18 46 64c20 99 62 365 73 443c0 2 -2 7 -4 7h-294c-2 -1 -8 -5 -8 -9c-17 -95 -61 -380 -69 -460
c-2 -20 -1 -35 20 -42c14 -5 41 -9 73 -12c3 -6 -1 -30 -6 -34c-57 0 -112 3 -169 3s-117 -3 -172 -3c-2 7 1 28 5 34c28 3 49 6 62 9c27 6 37 18 46 64c20 99 63 366 75 444c0 3 -2 7 -5 7c-17 2 -57 1 -74 0c-15 -1 -36 -6 -58 -32c-17 -22 -38 -53 -58 -89z" />
    <glyph glyph-name="T_h" unicode="Th" horiz-adv-x="1011" 
d="M919 416c44 0 47 -53 35 -118c-17 -89 -33 -156 -35 -195c0 -14 2 -19 9 -19c14 0 31 13 54 33c1 -2 3 -5 3 -9c0 -10 -2 -23 -4 -29c-31 -42 -106 -94 -164 -94c-25 0 -33 31 -24 82c12 73 25 140 40 215c7 26 5 47 -7 47c-22 0 -67 -38 -107 -106
c-18 -32 -30 -62 -40 -105c-9 -35 -11 -66 -3 -88c-19 -17 -104 -48 -117 -48c-6 0 -12 7 -13 12c-2 10 0 31 3 53c25 153 65 358 89 510c-20 -3 -41 -3 -75 -3h-117c-2 0 -8 -6 -8 -9c-17 -95 -61 -379 -70 -459c-1 -20 0 -35 20 -42c15 -5 41 -9 74 -13
c3 -5 -2 -30 -6 -34c-57 0 -112 3 -169 3s-117 -3 -173 -3c-1 7 2 29 6 34c28 4 49 7 62 10c27 6 36 18 46 63c20 100 63 365 74 444c0 2 -2 7 -5 7c-17 1 -73 1 -90 0c-15 -1 -34 -3 -56 -30c-18 -22 -30 -50 -50 -87c-6 -1 -32 6 -36 14c16 41 37 112 46 159c1 3 5 6 7 6
c30 -9 66 -14 91 -14h354c37 0 64 1 85 2c4 16 7 27 16 33c19 10 92 29 117 33c4 -1 10 -12 9 -17c-12 -19 -21 -55 -30 -98c-19 -98 -36 -191 -52 -280c1 -1 4 -1 5 0c63 76 137 140 206 140z" />
    <glyph glyph-name="f_b" unicode="fb" horiz-adv-x="761" 
d="M385 666c34 0 63 -7 82 -17c18 2 42 12 62 22c5 2 14 -8 13 -11c-11 -22 -20 -69 -30 -118c-20 -102 -28 -148 -46 -236c0 -3 4 -2 5 -1c52 55 129 111 188 111c47 0 71 -53 70 -116c-1 -89 -43 -173 -100 -224c-66 -60 -144 -92 -218 -92c-60 0 -93 50 -93 107
c1 30 7 69 11 89c23 128 59 317 69 376c0 9 1 25 -8 35c-15 16 -35 26 -57 26c-25 0 -48 -17 -65 -65c-14 -35 -23 -86 -31 -143c-1 -3 1 -7 5 -7c29 0 62 1 86 5c1 -4 -5 -26 -9 -30c-15 -14 -32 -22 -64 -24c-7 -1 -17 -2 -22 -2c-3 -1 -6 -4 -6 -6v-1
c-18 -113 -38 -256 -59 -357c-29 -142 -181 -238 -253 -238c-42 0 -64 19 -63 41c-1 23 15 57 25 75c2 3 10 9 14 10c33 -38 70 -63 98 -63c18 0 27 16 36 60c28 151 63 383 77 471c0 2 -1 7 -5 7c-21 0 -43 1 -62 2c-1 2 -3 6 -2 9c8 16 31 38 39 42l36 -1c3 0 5 2 6 6
c22 99 64 163 139 213c43 30 99 45 132 45zM486 36c15 0 34 10 51 30c35 42 65 129 65 204c1 41 -11 64 -31 64c-24 0 -63 -30 -93 -72c-27 -39 -43 -111 -43 -150s13 -76 51 -76z" />
    <glyph glyph-name="f_f" unicode="ff" horiz-adv-x="543" 
d="M34 353c-1 2 -1 5 1 8c6 15 26 39 34 42c13 0 30 -1 40 -1c4 1 5 4 5 5c20 92 70 148 127 188c38 27 87 48 119 48c30 1 54 -7 54 -23c0 -19 -37 -56 -56 -70c-5 -4 -12 -4 -15 -2c-21 20 -35 36 -52 36c-11 0 -22 -13 -28 -34c-12 -41 -19 -86 -27 -141c0 -3 2 -7 6 -7
h135c4 2 5 4 5 5c24 107 66 164 136 214c34 25 88 49 120 49c30 1 51 -7 51 -24c0 -15 -34 -57 -51 -71c-5 -4 -13 -2 -15 -2c-21 20 -42 35 -61 35c-13 0 -22 -12 -30 -35c-13 -41 -19 -95 -29 -164c0 -3 2 -7 6 -7c29 0 69 2 93 6c1 -4 -5 -26 -9 -30
c-17 -14 -37 -22 -68 -24c-7 -1 -20 -2 -25 -2c-3 -1 -5 -4 -5 -6c-19 -113 -28 -208 -49 -309c-35 -169 -177 -258 -263 -258c-33 0 -55 8 -69 25c-10 12 -17 32 -18 49c-61 -76 -133 -104 -182 -104c-42 0 -64 19 -63 41c0 19 13 54 24 72c2 3 10 8 13 10
c34 -38 71 -59 100 -59c18 0 27 15 36 59c28 154 64 388 77 470c1 3 -1 8 -4 8c-18 0 -45 2 -63 3zM232 351c-2 -1 -5 -4 -5 -6c-19 -112 -37 -249 -58 -350c-7 -40 -22 -76 -36 -97c28 -38 68 -61 108 -61c31 0 48 17 62 90c27 139 52 328 66 415c0 3 -1 8 -5 8z" />
    <glyph glyph-name="f_f_b" unicode="ffb" horiz-adv-x="1023" 
d="M500 352c-3 -1 -5 -4 -5 -6c-19 -113 -29 -207 -50 -308c-35 -169 -166 -259 -264 -259c-34 0 -53 8 -67 25c-10 12 -17 32 -18 49c-61 -76 -133 -104 -182 -104c-42 0 -64 19 -63 41c0 19 13 55 23 72c2 4 10 9 14 11c33 -38 71 -60 100 -60c18 0 27 15 36 59
c28 151 63 383 77 470c1 3 -1 8 -4 8v-1c-18 1 -45 3 -63 3c-1 2 -1 6 1 9c6 15 26 39 34 42c13 0 30 -1 40 -1c3 0 4 3 5 5c23 99 76 151 127 188c38 28 85 48 118 48c29 1 55 -7 55 -23c0 -19 -37 -57 -56 -70c-5 -4 -13 -3 -15 -2c-21 20 -31 34 -50 34
c-12 0 -23 -11 -30 -34c-12 -41 -19 -84 -27 -139c0 -3 2 -7 6 -7h135c4 2 5 4 5 5c23 104 65 162 137 212c34 25 84 46 137 47c34 0 61 -6 78 -17c18 2 42 12 62 22c4 2 14 -8 12 -11c-10 -22 -22 -77 -31 -118l-47 -236c-1 -3 4 -2 5 -1c51 55 129 111 188 111
c46 0 69 -53 69 -116c-2 -89 -45 -172 -102 -224c-66 -59 -149 -92 -216 -92c-63 0 -94 50 -94 107c1 30 7 69 11 89c24 128 62 317 72 376c2 9 3 25 -6 35c-16 16 -35 26 -57 26c-26 0 -49 -17 -65 -65c-14 -35 -24 -86 -32 -143c0 -3 2 -7 6 -7c29 0 61 1 86 5
c1 -4 -5 -26 -9 -30c-15 -15 -32 -22 -64 -25c-7 -1 -17 -1 -22 0zM232 351c-2 -1 -5 -4 -5 -6c-19 -112 -37 -249 -58 -350c-7 -40 -22 -76 -36 -97c28 -38 69 -61 109 -61c31 0 47 17 61 90c27 139 52 328 66 416c0 2 -1 7 -5 7zM748 36c16 0 35 11 51 30
c36 43 65 129 66 203c0 41 -12 65 -32 65c-24 0 -62 -30 -91 -72c-28 -39 -42 -111 -42 -150s11 -76 48 -76z" />
    <glyph glyph-name="f_f_h" unicode="ffh" horiz-adv-x="1033" 
d="M595 407c1 -4 -5 -26 -9 -30c-15 -15 -32 -22 -64 -25c-7 -1 -17 -1 -22 0c-3 -1 -5 -4 -5 -6c-19 -113 -28 -207 -49 -308c-35 -169 -173 -259 -263 -259c-34 0 -55 8 -69 25c-10 12 -17 32 -18 49c-61 -76 -133 -104 -182 -104c-42 0 -64 19 -63 41c0 19 13 55 23 72
c2 4 10 9 14 11c33 -38 71 -60 100 -60c18 0 27 15 36 59c28 151 63 383 77 470c1 3 -1 8 -4 7c-18 1 -45 3 -63 3c-1 2 -1 6 1 9c6 15 26 38 34 42c13 -1 30 -1 40 -1c3 0 4 2 5 5c21 93 71 149 127 188c32 22 85 48 118 48c29 1 55 -7 55 -23c0 -19 -37 -56 -56 -71
c-5 -4 -13 -1 -15 -1c-21 21 -32 34 -51 34c-11 0 -22 -11 -29 -35c-12 -41 -19 -84 -27 -138c0 -4 2 -7 6 -7h135c4 1 5 3 5 5c23 103 65 162 137 212c34 25 87 47 139 48c35 0 62 -7 79 -18c18 2 41 12 61 22c5 2 15 -8 13 -11c-10 -22 -23 -76 -32 -123
c-20 -101 -34 -183 -48 -262c0 -1 3 -1 5 0c60 75 137 141 206 141c40 0 47 -49 36 -110c-16 -89 -34 -163 -37 -202c0 -14 2 -19 10 -19c13 0 30 13 53 34c1 -2 4 -5 4 -10c0 -9 -3 -23 -4 -29c-32 -41 -106 -95 -165 -95c-22 0 -33 31 -24 82c11 73 30 156 45 231
c5 18 -1 31 -11 31c-22 0 -68 -39 -107 -107c-19 -32 -30 -63 -40 -106c-9 -34 -14 -70 -4 -94c-19 -15 -100 -47 -118 -49c-3 2 -11 8 -12 13c-2 10 0 31 3 53c27 161 67 357 94 517c2 8 3 25 -6 34c-15 16 -37 26 -59 26c-26 0 -49 -18 -65 -66c-14 -35 -24 -85 -32 -141
c0 -4 2 -7 6 -7c29 0 61 1 86 5zM232 351c-2 -1 -5 -4 -5 -6c-19 -112 -37 -249 -58 -350c-7 -40 -22 -76 -36 -97c28 -38 69 -61 109 -61c31 0 47 17 61 90c27 139 52 328 66 416c0 2 -1 7 -5 7z" />
    <glyph glyph-name="f_f_i" unicode="ffi" horiz-adv-x="791" 
d="M183 -221c-34 0 -55 8 -69 25c-10 12 -17 32 -18 49c-61 -76 -133 -104 -182 -104c-42 0 -64 19 -63 41c0 19 13 55 23 72c2 4 10 9 14 11c33 -38 71 -60 100 -60c18 0 27 15 36 59c28 151 63 383 77 470c1 3 -1 8 -4 8l-66 3c-2 2 -4 5 -2 8c5 15 33 39 40 42
c14 0 29 -1 39 -1c3 0 5 2 6 5c19 87 72 149 128 188c32 22 83 47 115 48c37 2 57 -7 57 -23c0 -19 -36 -55 -55 -69c-5 -4 -14 -4 -17 -1c-21 20 -30 32 -49 32c-12 0 -24 -10 -31 -34c-12 -41 -18 -84 -26 -139c0 -3 2 -7 6 -7h129c4 2 5 4 5 5c18 89 62 161 137 212
c39 27 95 51 149 51c43 0 77 -9 95 -34c4 -5 3 -16 1 -23c-5 -24 -35 -53 -54 -64c-6 -3 -19 -5 -21 -2c-29 42 -57 70 -95 70c-27 0 -46 -23 -58 -56c-15 -40 -25 -88 -34 -151c0 -4 2 -8 6 -8c28 0 65 1 103 1c61 1 111 6 142 15c5 2 11 -8 8 -13c-8 -19 -19 -53 -26 -94
c-15 -72 -33 -173 -35 -206c-1 -15 2 -21 9 -21c12 0 32 15 52 35c0 0 4 0 4 -2c2 -7 -2 -34 -5 -38c-49 -59 -118 -95 -158 -95c-35 0 -35 44 -28 92c10 67 35 184 51 271c1 3 0 11 -4 10c-16 -3 -87 -7 -116 -6c-3 -1 -4 -4 -4 -5c-19 -113 -29 -207 -50 -308
c-35 -169 -172 -259 -262 -259zM242 -163c31 0 47 17 61 90c27 139 52 328 66 415c0 3 -1 8 -5 8l-132 1c-2 -1 -5 -4 -5 -6c-19 -112 -37 -249 -58 -350c-7 -40 -22 -76 -36 -97c28 -38 69 -61 109 -61z" />
    <glyph glyph-name="f_f_j" unicode="ffj" horiz-adv-x="791" 
d="M669 670c42 0 75 -9 94 -34c3 -5 3 -20 1 -27c-5 -18 -36 -53 -56 -64c-5 -3 -18 -5 -20 -2c-30 42 -56 74 -94 74c-26 0 -46 -23 -58 -55c-14 -41 -26 -98 -34 -152c-1 -5 1 -8 6 -8h105c67 0 107 5 141 14c6 1 13 -8 10 -13c-16 -37 -32 -172 -56 -303
c-20 -113 -44 -168 -103 -225c-29 -29 -85 -62 -131 -78c-6 2 -19 18 -23 26c-1 3 1 7 2 8c72 39 90 69 108 154c10 49 20 108 28 155c16 94 28 174 35 205c1 4 -2 8 -5 8c-13 -3 -112 -4 -117 -4c-5 2 -7 -1 -7 -3c-19 -113 -29 -207 -50 -308
c-35 -169 -173 -259 -262 -259c-34 0 -55 8 -69 25c-10 12 -17 32 -18 49c-61 -76 -133 -104 -182 -104c-42 0 -64 19 -63 41c0 19 13 55 23 72c2 4 10 9 14 11c33 -38 71 -61 100 -61c18 0 27 16 36 60c28 151 63 383 77 470c1 3 -1 8 -4 8c-18 0 -47 2 -65 3c0 2 0 5 2 8
c5 15 27 37 34 41h40c4 1 5 3 6 5c23 100 71 149 127 188c32 22 86 47 118 47c30 1 53 -7 53 -23c0 -19 -33 -55 -52 -70c-5 -4 -12 -2 -15 -2c-21 21 -33 35 -52 35c-12 0 -23 -11 -30 -34c-12 -41 -19 -84 -27 -139c0 -3 2 -7 6 -7h135c4 2 5 4 5 5c17 86 59 160 135 212
c39 27 97 51 152 51zM232 351c-2 -1 -5 -4 -5 -6c-19 -112 -37 -249 -58 -350c-7 -40 -22 -76 -36 -97c28 -38 69 -62 109 -62c31 0 47 18 61 91c27 139 52 328 66 415c0 3 -1 8 -5 8z" />
    <glyph glyph-name="f_f_k" unicode="ffk" horiz-adv-x="1011" 
d="M499 351l1 1c-3 -1 -5 -4 -5 -6c-18 -109 -29 -207 -50 -308c-35 -169 -175 -259 -265 -259c-34 0 -52 8 -66 25c-10 12 -17 32 -18 49c-61 -76 -133 -104 -182 -104c-42 0 -64 19 -63 41c0 19 13 55 23 72c2 4 10 9 14 11c33 -38 71 -61 100 -61c18 0 26 11 36 60
c28 151 63 383 77 470c1 3 -1 8 -4 7c-18 1 -45 3 -63 3c-1 2 -1 6 1 9c6 15 26 38 34 42c13 -1 30 -1 40 -1c4 0 5 3 5 5c22 95 71 149 127 188c31 22 83 45 115 45c30 1 56 -7 56 -24c0 -18 -36 -50 -55 -64c-5 -4 -12 -3 -15 -2c-21 20 -30 32 -49 32
c-12 0 -23 -10 -30 -34c-12 -41 -19 -85 -27 -139c0 -4 2 -7 6 -7h135c4 1 5 3 5 5c23 103 66 161 137 211c34 24 90 47 143 48c35 0 62 -6 79 -17c18 2 41 12 61 22c5 2 15 -8 13 -11c-10 -22 -26 -97 -37 -150c-24 -125 -25 -135 -56 -286c-2 -6 5 -5 7 -3
c43 56 157 195 221 195c34 0 50 -11 59 -24c0 -2 2 -17 -1 -23c-9 -17 -40 -60 -53 -67c-6 5 -40 22 -70 22c-31 0 -72 -51 -84 -67c-1 -1 -2 -6 1 -8c7 -4 20 -19 37 -46c48 -76 78 -119 103 -119c18 0 34 13 60 44c1 -1 6 -2 7 -5c2 -7 0 -29 -3 -36
c-41 -58 -90 -102 -137 -102c-23 0 -41 11 -60 38c-25 35 -61 115 -79 137c-5 6 -9 5 -12 0c-4 -3 -11 -15 -14 -27c-5 -16 -6 -24 -9 -43c-2 -21 -1 -44 6 -59c-12 -16 -108 -50 -118 -50c-11 0 -12 14 -13 29c0 13 4 37 18 112c21 108 74 377 80 428c3 14 4 30 -5 40
c-15 16 -41 26 -63 26c-26 0 -49 -17 -65 -65c-14 -35 -24 -86 -32 -142c0 -4 2 -7 6 -7c29 0 61 1 86 5c1 -4 -5 -26 -9 -30c-15 -15 -32 -22 -64 -25c-7 -1 -17 -1 -23 -1zM232 351c-2 -1 -5 -4 -5 -6c-19 -112 -37 -249 -58 -350c-7 -40 -22 -76 -36 -97
c28 -38 68 -62 108 -62c31 0 48 18 62 91c27 139 52 328 66 415c0 3 -1 8 -5 8z" />
    <glyph glyph-name="f_f_l" unicode="ffl" horiz-adv-x="795" 
d="M360 642c30 1 54 -6 54 -22c0 -19 -38 -54 -57 -68c-5 -4 -12 -3 -15 -2c-21 20 -30 32 -49 32c-12 0 -23 -11 -30 -35c-12 -41 -19 -84 -27 -138c0 -4 2 -7 6 -7h135c4 1 5 3 5 5c21 95 66 162 137 212c34 25 82 46 139 47c31 0 58 -6 76 -16c18 2 40 11 60 21
c5 2 15 -8 13 -11c-10 -22 -25 -97 -34 -145c-28 -149 -68 -361 -70 -403c-2 -16 0 -29 12 -29c11 0 27 9 59 37c1 -1 3 -3 3 -8c1 -3 -1 -25 -5 -32c-45 -53 -116 -96 -164 -96c-25 0 -38 38 -29 105c13 98 66 371 82 467c2 9 3 27 -6 36c-15 16 -33 24 -55 24
c-26 0 -49 -12 -65 -64c-13 -35 -24 -87 -32 -143c0 -4 2 -7 6 -7c29 0 61 1 86 5c1 -4 -5 -26 -9 -30c-15 -15 -34 -23 -67 -25h-19c-3 0 -5 -4 -5 -6c-19 -113 -29 -207 -50 -308c-35 -169 -172 -259 -261 -259c-34 0 -56 8 -70 25c-10 12 -17 32 -18 49
c-61 -76 -133 -104 -182 -104c-42 0 -64 19 -63 41c0 19 12 59 23 76c2 4 10 8 13 10c34 -37 72 -63 101 -63c18 0 26 15 36 59c23 120 63 383 77 470c1 3 -1 8 -4 7c-18 1 -45 3 -63 3c-1 2 -1 6 1 9c6 15 26 38 34 42c13 -1 30 -1 40 -1c4 0 5 3 5 5c21 91 68 147 127 188
c32 22 82 47 119 47zM232 351c-2 -1 -5 -4 -5 -6c-19 -112 -37 -249 -58 -350c-7 -40 -22 -76 -36 -97c28 -38 69 -61 109 -61c31 0 47 17 61 90c27 139 52 328 66 415c0 3 -1 8 -5 8z" />
    <glyph glyph-name="f_f_t" unicode="fft" horiz-adv-x="828" 
d="M360 642c29 1 53 -7 53 -23c0 -19 -37 -53 -56 -67c-5 -4 -12 -3 -15 -2c-21 20 -30 31 -49 31c-12 0 -23 -11 -30 -34c-12 -41 -19 -83 -27 -138c0 -3 2 -7 6 -7h133c4 2 5 3 6 6c24 111 63 160 136 213c41 30 90 51 122 51c30 1 49 -7 49 -23s-34 -56 -51 -71
c-6 -4 -13 -2 -16 -2c-21 21 -39 30 -59 30c-13 0 -23 -10 -31 -34c-13 -41 -21 -97 -29 -163c-1 -3 1 -7 6 -7l124 1c2 0 5 3 6 6c13 49 17 67 26 87c4 10 48 45 124 67c5 2 9 -9 8 -12c-9 -16 -15 -32 -21 -56c-7 -26 -12 -51 -19 -87c-1 -3 3 -7 5 -7c43 0 94 6 103 9
c1 -3 -1 -16 -3 -20c-8 -12 -30 -27 -48 -32c-20 -5 -38 -6 -64 -8c-2 0 -4 -3 -5 -5c-14 -66 -35 -183 -39 -228c-2 -25 2 -38 17 -38c25 0 63 33 88 62c1 0 4 -4 4 -7c0 -10 -4 -32 -8 -40c-29 -44 -114 -110 -180 -110c-36 0 -54 35 -49 97c3 35 32 191 47 261
c0 3 0 9 -5 9l-119 1c-3 -1 -5 -4 -5 -6c-19 -113 -29 -207 -50 -308c-35 -169 -172 -259 -262 -259c-34 0 -55 8 -69 25c-10 12 -17 32 -18 49c-61 -76 -133 -104 -182 -104c-42 0 -64 19 -63 41c0 19 13 55 23 72c2 4 10 9 14 11c33 -38 71 -60 100 -60c18 0 27 15 36 59
c28 151 63 383 77 470c1 3 -1 8 -4 8c-18 0 -47 2 -65 3c0 2 0 5 2 8c5 15 28 39 35 42c14 0 29 -1 39 -1c4 1 5 3 6 5c23 102 71 149 127 188c32 22 86 47 119 47zM232 351c-2 -1 -5 -4 -5 -6c-19 -112 -37 -249 -58 -350c-7 -40 -22 -76 -36 -97c28 -38 69 -61 109 -61
c31 0 47 17 61 90c27 139 52 328 66 415c0 3 -1 8 -5 8z" />
    <glyph glyph-name="f_h" unicode="fh" horiz-adv-x="764" 
d="M384 666c35 0 66 -6 83 -17c18 2 42 12 62 22c4 2 14 -8 12 -11c-10 -22 -24 -94 -33 -141l-45 -244c1 -1 4 -1 5 0c63 79 137 141 206 141c39 0 49 -44 38 -101c-16 -89 -36 -173 -38 -212c0 -13 2 -19 9 -19c14 0 31 14 54 35c1 -2 3 -5 3 -9c0 -9 -2 -24 -4 -30
c-31 -41 -105 -95 -164 -95c-22 0 -33 31 -25 82c12 73 31 156 46 231c5 19 -1 31 -11 31c-22 0 -69 -40 -108 -108c-19 -32 -30 -67 -41 -109c-8 -35 -14 -71 -4 -95c-18 -15 -99 -47 -117 -49c-4 2 -12 8 -13 13c-2 10 0 31 4 53c26 161 68 361 93 522c2 9 3 25 -6 35
c-15 16 -35 26 -57 26c-25 0 -48 -17 -65 -65c-13 -35 -23 -86 -31 -143c-1 -3 1 -7 5 -7c29 0 62 1 86 5c1 -4 -5 -26 -9 -30c-15 -14 -32 -22 -64 -24c-7 -1 -17 -2 -22 -2c-3 -1 -6 -4 -6 -6v-1c-18 -113 -38 -256 -59 -357c-29 -142 -181 -238 -253 -238
c-42 0 -64 19 -63 41c1 25 15 57 25 74c2 4 10 8 14 10c33 -37 69 -61 98 -61c18 0 27 15 36 59c28 151 63 383 77 471c0 2 -1 7 -5 7c-21 0 -43 1 -62 2c-1 2 -3 6 -2 9c8 16 31 38 39 42l36 -1c4 1 6 3 6 6c20 88 66 163 140 213c43 30 97 45 130 45z" />
    <glyph glyph-name="f_i" unicode="fi" horiz-adv-x="529" 
d="M399 670c43 0 77 -9 95 -34c4 -5 3 -20 1 -27c-4 -18 -36 -53 -56 -64c-5 -3 -18 -5 -20 -2c-30 42 -56 74 -94 74c-25 0 -44 -22 -56 -54c-15 -41 -25 -90 -33 -154c0 -3 2 -7 6 -7c28 0 65 0 103 1c61 0 110 6 141 15c6 1 11 -8 8 -14c-11 -23 -19 -58 -26 -99
c-15 -72 -32 -167 -34 -200c-1 -15 2 -21 9 -21c12 0 32 15 52 35c0 0 4 0 4 -2c2 -7 -2 -33 -5 -38c-48 -59 -118 -95 -158 -95c-35 0 -36 43 -27 91c11 67 33 184 50 272c0 2 0 11 -5 9c-17 -5 -96 -6 -120 -6c-3 0 -7 -5 -7 -7c-18 -112 -38 -255 -59 -356
c-29 -142 -181 -238 -253 -238c-42 0 -64 19 -63 41c0 19 14 54 25 72c2 3 10 8 13 10c34 -38 68 -58 97 -58c18 0 29 14 38 58c28 151 63 383 77 470c0 3 -1 7 -5 7c-21 0 -43 2 -62 2c-1 2 -3 6 -2 9c8 17 31 39 39 42h37c3 0 5 2 6 5c22 101 63 161 136 213
c35 25 102 50 148 50z" />
    <glyph glyph-name="f_j" unicode="fj" horiz-adv-x="526" 
d="M97 349c-21 0 -43 2 -62 2c-1 2 -3 6 -2 9c8 17 31 39 39 42h37c3 0 5 2 6 5c20 95 64 160 138 213c34 25 100 50 146 50c45 0 77 -10 95 -35c4 -5 3 -20 1 -27c-4 -18 -37 -54 -56 -65c-6 -3 -17 -5 -19 -2c-29 43 -57 74 -95 74c-25 0 -44 -21 -56 -53
c-15 -41 -24 -89 -32 -153c-1 -4 1 -7 5 -7h112c50 0 98 5 132 14c5 1 12 -8 10 -13c-16 -37 -33 -179 -57 -309c-20 -113 -45 -168 -103 -225c-29 -29 -86 -63 -131 -78c-6 2 -16 18 -19 26c-1 4 1 6 2 9c67 39 86 66 104 151c10 49 19 109 27 157c16 94 29 180 36 211
c1 4 0 8 -3 8c-13 -3 -112 -4 -118 -4c-3 0 -6 -4 -7 -9c-18 -109 -38 -252 -59 -353c-29 -142 -181 -238 -253 -238c-42 0 -64 19 -63 41c0 19 14 54 25 72c2 3 10 8 13 10c34 -38 70 -59 99 -59c18 0 27 15 36 59c28 151 63 383 77 470c0 3 -1 7 -5 7z" />
    <glyph glyph-name="f_k" unicode="fk" horiz-adv-x="738" 
d="M384 666c35 0 65 -6 82 -17c16 2 42 12 61 22c5 2 15 -8 13 -11c-9 -22 -24 -90 -33 -138c-26 -130 -38 -204 -57 -298c-1 -6 4 -5 5 -3c43 56 158 195 222 195c34 0 51 -11 58 -22c1 -3 2 -17 -1 -23c-9 -17 -40 -61 -52 -68c-7 5 -41 22 -71 22s-71 -52 -83 -68
c-1 -1 -1 -6 1 -8c7 -4 20 -18 37 -45c55 -86 79 -119 103 -119c18 0 33 9 62 44c1 0 3 -2 4 -5c2 -8 -1 -33 -2 -37c-39 -57 -87 -102 -137 -102c-23 0 -41 11 -61 38c-25 35 -59 115 -78 137c-4 6 -7 6 -11 1c-4 -3 -13 -15 -16 -27c-4 -16 -6 -26 -8 -45
c-3 -21 -2 -43 5 -58c-12 -16 -106 -49 -116 -49c-11 0 -12 14 -13 29c0 13 2 36 17 111c21 108 73 377 82 434c2 9 2 25 -7 35c-15 16 -34 25 -57 25c-25 0 -48 -16 -65 -64c-13 -35 -23 -86 -31 -143c-1 -3 1 -7 5 -7c29 0 62 1 86 5c1 -4 -5 -26 -9 -30
c-15 -14 -32 -22 -64 -24c-7 -1 -17 -2 -22 -2c-3 -1 -6 -4 -6 -7c-18 -113 -38 -256 -59 -357c-29 -142 -181 -238 -253 -238c-42 0 -64 19 -63 41c0 19 14 57 25 75c2 3 10 8 13 10c34 -38 71 -62 100 -62c18 0 26 15 35 60c28 151 63 382 77 470c0 2 -1 7 -5 7
c-21 0 -43 1 -62 2c-1 2 -3 6 -2 9c8 16 31 38 39 42l36 -1c4 1 6 3 6 6c21 94 65 163 139 213c43 30 98 45 131 45z" />
    <glyph glyph-name="f_l" unicode="fl" horiz-adv-x="530" 
d="M328 407c1 -4 -5 -26 -9 -30c-15 -14 -32 -22 -64 -24c-7 -1 -16 -2 -22 -2c-2 -1 -5 -4 -6 -7c-18 -124 -38 -256 -59 -357c-29 -142 -181 -238 -253 -238c-42 0 -64 19 -63 41c0 19 14 54 25 72c2 3 10 8 13 10c34 -38 70 -59 99 -59c18 0 27 15 36 59
c28 151 63 383 77 471c0 2 -1 7 -5 7c-21 0 -43 1 -62 2c-1 2 -3 6 -2 9c8 16 31 38 39 42l36 -1c4 1 6 3 6 6c21 92 63 162 139 213c43 30 98 45 130 45c35 0 68 -6 85 -17c18 2 41 12 61 22c5 2 15 -8 13 -11c-10 -22 -26 -97 -36 -145c-28 -149 -66 -361 -68 -403
c-2 -16 0 -29 12 -29c11 0 27 8 59 37c1 -1 3 -3 3 -8c1 -3 -1 -27 -6 -33c-45 -53 -116 -95 -163 -95c-25 0 -38 36 -29 105c13 98 66 371 82 467c2 9 3 25 -6 35c-15 16 -35 26 -57 26c-25 0 -48 -17 -65 -65c-14 -35 -23 -86 -31 -143c-1 -3 1 -7 5 -7c29 0 62 1 86 5z
" />
    <glyph glyph-name="f_r" unicode="fr" horiz-adv-x="621" 
d="M603 416c20 0 40 -13 47 -29c1 -3 1 -12 0 -15c-3 -25 -37 -79 -52 -96c-6 -5 -11 -5 -14 -4c-16 15 -35 30 -51 30s-35 -24 -62 -80c-12 -27 -24 -63 -34 -112c-5 -26 -13 -61 -7 -81c-17 -13 -96 -42 -115 -45c-4 1 -12 8 -12 16c9 56 52 250 59 323c2 15 -2 27 -13 27
h-117c-2 0 -5 -4 -5 -6c-18 -112 -38 -256 -59 -357c-29 -142 -182 -238 -253 -238c-43 0 -64 19 -64 41c0 19 15 56 26 73c1 2 9 8 13 9c33 -38 70 -60 98 -60c18 0 27 15 36 59c28 151 63 384 77 471c1 3 -1 8 -4 8c-22 0 -45 1 -63 2c0 2 -1 5 1 8c6 15 29 38 36 42h38
c4 2 5 4 5 5c26 116 66 164 138 214c36 26 88 49 120 49c30 1 51 -7 51 -23c0 -19 -32 -60 -51 -74c-5 -4 -13 -2 -15 -2c-23 25 -43 37 -62 37c-13 0 -22 -13 -30 -37c-13 -41 -20 -99 -29 -162c0 -3 2 -7 5 -7h116c52 0 100 9 110 9c14 0 16 -22 7 -70l-15 -72
c1 -1 3 -1 4 0c22 40 47 79 62 98c26 31 47 49 78 49z" />
    <glyph glyph-name="f_t" unicode="ft" horiz-adv-x="565" 
d="M226 343l1 1c-19 -121 -38 -256 -59 -357c-29 -142 -182 -238 -253 -238c-43 0 -64 19 -64 41c0 19 15 54 25 72c2 3 10 8 14 10c33 -38 70 -59 98 -59c18 0 27 15 36 59c28 151 63 383 77 470c1 3 -1 8 -4 8c-22 0 -45 1 -63 2c0 2 -1 5 1 8c6 15 29 38 36 42h38
c4 2 5 4 5 5c23 105 66 163 138 214c34 25 88 49 120 49c30 1 50 -6 50 -23c0 -18 -32 -60 -51 -74c-5 -4 -13 -2 -15 -2c-21 21 -40 36 -59 36c-16 0 -24 -9 -32 -33c-13 -41 -20 -102 -29 -165c0 -3 1 -7 5 -7l124 1c2 0 5 3 6 6c13 50 17 71 26 91c4 10 46 45 122 67
c5 1 9 -9 8 -12c-9 -16 -14 -33 -20 -57c-7 -26 -11 -54 -18 -90c-1 -3 2 -7 4 -7c44 0 96 6 104 9c2 -3 -1 -16 -3 -20c-8 -12 -30 -27 -48 -32c-19 -5 -37 -6 -63 -8c-2 0 -4 -3 -5 -5c-14 -66 -36 -188 -39 -228c-2 -25 1 -38 16 -38c25 0 64 33 88 62c2 0 5 -4 5 -7
c0 -10 -5 -31 -8 -39c-30 -44 -114 -111 -180 -111c-36 0 -55 35 -48 97c2 37 31 190 46 261c0 3 0 9 -5 9l-119 -1c-3 0 -7 -4 -8 -7z" />
    <glyph glyph-name="longs_b" unicode="&#x17f;b" horiz-adv-x="752" 
d="M381 666c36 0 60 -7 77 -17c19 2 43 12 63 22c4 2 14 -8 12 -11c-10 -22 -16 -52 -30 -119c-20 -102 -30 -157 -44 -234c-1 -2 3 -2 4 -1c53 58 130 110 189 110c47 0 69 -53 69 -116c-2 -89 -44 -172 -101 -224c-67 -59 -149 -92 -216 -92c-60 0 -93 50 -93 107
c0 30 5 69 9 89c15 87 59 319 69 378c1 8 1 24 -8 35c-14 17 -31 24 -48 24c-26 0 -51 -16 -68 -65c-13 -35 -26 -76 -48 -225c-17 -112 -33 -239 -53 -340c-30 -142 -183 -238 -254 -238c-42 0 -64 19 -64 41c1 19 15 54 25 72c2 3 10 8 14 10c33 -38 70 -60 98 -60
c18 0 27 13 37 60c27 151 39 238 66 405c27 166 70 277 172 345c43 30 91 44 123 44zM478 36c16 0 34 10 50 30c36 42 65 129 66 204c0 41 -12 65 -32 65c-26 0 -62 -30 -92 -72c-28 -39 -42 -112 -42 -151s13 -76 50 -76z" />
    <glyph glyph-name="longs_h" unicode="&#x17f;h" horiz-adv-x="754" 
d="M381 666c35 0 58 -6 75 -17c19 2 41 12 61 22c5 2 14 -8 13 -11c-11 -22 -16 -51 -37 -162l-41 -226c0 -1 3 -1 5 0c62 79 138 144 206 144c40 0 49 -44 39 -101c-16 -89 -36 -173 -38 -212c0 -14 2 -19 9 -19c13 0 31 14 53 34c2 -2 4 -5 4 -9c0 -9 -3 -24 -4 -30
c-32 -42 -106 -94 -164 -94c-22 0 -34 31 -25 82c12 73 31 156 46 231c4 19 -1 31 -12 31c-21 0 -69 -40 -108 -108c-18 -32 -29 -67 -40 -109c-8 -35 -14 -71 -4 -95c-18 -15 -100 -47 -117 -49c-4 2 -12 8 -13 13c-2 10 0 31 4 53c26 161 68 361 93 525c1 8 2 27 -7 37
c-14 16 -28 21 -46 21c-25 0 -51 -20 -68 -68c-13 -35 -25 -77 -48 -225c-17 -112 -33 -236 -53 -337c-30 -142 -183 -238 -254 -238c-42 0 -64 19 -64 41c1 19 15 54 25 72c2 3 10 8 14 10c33 -38 70 -59 98 -59c18 0 28 15 37 59c27 151 39 238 66 405
c26 159 70 277 172 345c43 30 90 44 123 44z" />
    <glyph glyph-name="longs_i" unicode="&#x17f;i" horiz-adv-x="519" 
d="M395 670c59 0 92 -22 97 -41c1 -6 2 -18 -2 -25c-13 -27 -40 -53 -55 -60c-6 -3 -15 -4 -18 -2c-22 30 -51 72 -95 72c-30 0 -52 -31 -63 -71c-13 -44 -27 -112 -42 -218c-17 -113 -33 -237 -53 -338c-30 -142 -183 -238 -254 -238c-42 0 -64 19 -64 41c1 19 15 54 25 72
c2 3 10 8 14 10c33 -38 70 -59 98 -59c18 0 28 15 37 59c27 151 51 315 65 403c32 199 76 273 166 342c41 31 97 53 144 53zM486 120c1 0 4 0 5 -2c1 -7 -2 -31 -5 -36c-48 -59 -119 -98 -159 -98c-35 0 -36 44 -27 92c12 67 35 155 47 221c2 8 1 16 -5 16
c-9 0 -27 -9 -48 -23c-1 0 -4 1 -4 3c-1 8 2 27 6 31c57 53 129 91 161 91c23 0 22 -46 14 -84c-15 -74 -43 -189 -46 -226c-1 -15 3 -21 10 -21c11 0 34 19 51 36z" />
    <glyph glyph-name="longs_k" unicode="&#x17f;k" horiz-adv-x="726" 
d="M381 666c35 0 58 -6 75 -17c19 2 41 12 61 22c4 2 14 -8 12 -11c-5 -13 -20 -76 -22 -88c-22 -113 -39 -195 -69 -346c-1 -6 5 -5 6 -3c46 56 155 193 223 193c32 0 50 -11 56 -22c2 -4 1 -16 0 -23c-6 -19 -41 -63 -53 -68c-6 5 -41 22 -71 22s-72 -52 -83 -69
c-1 -1 -2 -4 0 -5c8 -6 20 -20 38 -47c65 -102 86 -120 102 -120s32 9 61 44c1 0 6 -1 7 -4c2 -8 -1 -31 -2 -35c-39 -59 -96 -104 -139 -104c-23 0 -40 11 -59 38c-25 35 -61 116 -80 138c-3 4 -8 3 -11 1c-4 -3 -10 -16 -13 -28c-5 -16 -8 -38 -11 -55c-2 -21 0 -33 6 -48
c-12 -16 -106 -49 -117 -49c-10 0 -12 12 -13 27c0 13 2 27 16 103c22 107 77 383 85 446c1 9 0 25 -8 36c-13 15 -28 23 -45 23c-26 0 -51 -19 -68 -67c-13 -35 -25 -78 -48 -226c-17 -112 -33 -236 -53 -337c-30 -142 -183 -238 -254 -238c-42 0 -64 19 -64 41
c1 19 15 54 25 72c2 3 10 8 14 10c33 -38 70 -59 98 -59c18 0 28 15 37 59c27 151 40 238 66 405c25 159 70 277 172 345c43 30 90 44 123 44z" />
    <glyph glyph-name="longs_l" unicode="&#x17f;l" horiz-adv-x="522" 
d="M381 666c35 0 58 -6 75 -17c19 2 41 12 61 22c5 2 14 -8 13 -11c-11 -22 -16 -49 -34 -142c-27 -150 -67 -364 -69 -406c-1 -16 1 -29 12 -29s27 9 59 37c2 -1 3 -3 4 -8c1 -3 -1 -24 -6 -30c-44 -53 -115 -98 -164 -98c-25 0 -38 38 -29 105c13 98 67 372 83 470
c1 9 2 27 -6 37c-13 16 -30 22 -48 22c-25 0 -50 -18 -67 -66c-13 -36 -26 -80 -48 -228c-18 -112 -33 -236 -53 -337c-30 -142 -183 -238 -254 -238c-42 0 -64 19 -64 41c1 19 15 54 25 72c2 3 10 8 14 10c33 -38 70 -59 98 -59c18 0 28 15 37 59c27 151 40 238 66 405
c25 159 70 277 172 345c43 30 90 44 123 44z" />
    <glyph glyph-name="longs_longs" unicode="&#x17f;&#x17f;" horiz-adv-x="522" 
d="M127 -102v-1c33 -42 70 -56 111 -56c18 0 35 17 44 61c28 151 46 287 60 375c30 191 73 273 165 344c32 26 81 49 116 49c30 1 50 -6 50 -23c0 -18 -31 -57 -50 -72c-5 -4 -13 -2 -15 -2c-21 21 -41 34 -61 34c-13 0 -24 -14 -31 -37c-12 -41 -28 -136 -42 -243
c-17 -113 -27 -209 -48 -310c-29 -142 -182 -238 -261 -238c-35 0 -60 16 -69 42c-4 10 -5 21 -3 32c-55 -63 -135 -104 -183 -104c-42 0 -64 19 -64 41c1 19 15 54 25 72c2 3 10 8 14 10c33 -38 70 -59 98 -59c18 0 28 15 37 59c27 151 50 308 65 396
c30 187 71 256 162 328c33 26 84 51 120 51c29 2 48 -6 48 -22c0 -19 -33 -58 -52 -72c-5 -4 -13 -2 -15 -2c-22 21 -41 30 -60 30c-13 0 -24 -13 -31 -37c-12 -41 -25 -119 -40 -226c-17 -113 -33 -230 -53 -331c-8 -36 -22 -65 -37 -89z" />
    <glyph glyph-name="longs_longs_i" unicode="&#x17f;&#x17f;i" horiz-adv-x="776" 
d="M367 646c29 1 48 -6 48 -23c0 -18 -33 -56 -52 -70c-5 -4 -13 -2 -15 -2c-22 21 -40 32 -59 32c-15 0 -25 -15 -32 -39c-12 -41 -25 -119 -40 -226c-17 -113 -33 -230 -53 -331c-8 -36 -22 -65 -37 -89v-1c33 -42 67 -58 108 -58c22 0 38 19 47 63c28 151 45 287 60 373
c32 199 75 273 165 342c33 25 98 53 145 53c68 0 94 -26 97 -41c1 -6 2 -18 -2 -25c-10 -23 -40 -52 -54 -61c-5 -4 -15 -4 -18 -1c-21 30 -51 72 -96 72c-29 0 -51 -28 -62 -68c-12 -41 -26 -103 -43 -219c-18 -113 -27 -209 -48 -310c-29 -142 -182 -238 -261 -238
c-35 0 -60 16 -69 42c-4 10 -5 21 -3 32c-55 -63 -135 -104 -183 -104c-42 0 -64 19 -64 41c1 19 15 54 25 72c2 3 10 8 14 10c33 -38 69 -61 98 -61c19 0 28 17 37 61c27 151 50 308 65 396c30 187 71 256 162 328c33 26 84 50 120 50zM743 120c1 0 4 0 5 -2
c1 -7 -2 -31 -5 -36c-48 -59 -118 -98 -159 -98c-35 0 -36 44 -27 92c12 67 35 155 47 221c2 8 1 16 -5 16c-9 0 -27 -9 -47 -23c-2 0 -5 1 -5 3c-1 8 3 27 6 31c57 53 129 91 161 91c23 0 22 -46 14 -84c-15 -74 -43 -189 -45 -226c-1 -15 2 -21 9 -21c11 0 34 19 51 36z
" />
    <glyph glyph-name="longs_longs_l" unicode="&#x17f;&#x17f;l" horiz-adv-x="778" 
d="M364 644c29 1 50 -6 50 -22c0 -19 -32 -55 -51 -69c-4 -3 -12 -4 -15 -2c-22 21 -40 31 -59 31c-15 0 -25 -15 -32 -38c-12 -41 -25 -119 -40 -226c-17 -113 -33 -230 -53 -331c-8 -36 -22 -65 -37 -89v-1c29 -39 66 -58 107 -58c25 0 39 19 50 70c27 151 43 280 58 368
c25 159 70 277 172 345c43 30 90 44 123 44c35 0 58 -6 75 -17c19 2 41 12 61 22c5 2 14 -8 13 -11c-11 -22 -16 -49 -34 -142c-27 -150 -67 -364 -69 -406c-1 -16 1 -29 12 -29s27 9 59 37c2 -1 3 -3 4 -8c1 -3 -1 -25 -6 -31c-44 -53 -115 -97 -164 -97
c-25 0 -38 38 -29 105c13 98 67 370 83 468c1 8 3 26 -6 37c-13 16 -29 24 -47 24c-25 0 -51 -21 -69 -71c-13 -35 -25 -73 -46 -221c-17 -113 -27 -208 -48 -309c-29 -142 -182 -238 -261 -238c-35 0 -60 16 -69 42c-4 10 -5 21 -3 32c-55 -63 -135 -104 -183 -104
c-42 0 -64 19 -64 41c1 19 15 54 25 72c2 3 10 8 14 10c33 -38 69 -61 97 -61c18 0 28 13 38 61c27 151 50 308 65 396c30 187 71 256 162 328c33 26 82 48 117 48z" />
    <glyph glyph-name="longs_t" unicode="&#x17f;t" horiz-adv-x="548" 
d="M384 666c38 0 70 -6 88 -19c31 -19 39 -39 26 -105c-6 -35 -18 -98 -25 -134c-1 -3 3 -7 5 -7c43 0 94 4 103 8c1 -4 -2 -17 -3 -20c-8 -13 -31 -28 -48 -33c-20 -5 -38 -5 -64 -7c-2 0 -4 -4 -5 -6c-15 -79 -34 -187 -38 -225c-2 -25 2 -39 17 -39c25 0 63 33 87 62
c2 0 5 -4 5 -7c0 -10 -4 -30 -8 -39c-30 -43 -115 -111 -181 -111c-36 0 -52 37 -47 99c3 37 32 191 47 260c0 2 -1 5 -3 5c-27 0 -49 1 -64 3c0 2 -1 6 -1 9c7 10 38 41 44 42h30c2 0 5 3 6 5c11 47 23 106 31 150c2 14 2 31 -6 41c-13 15 -29 20 -46 20
c-26 0 -52 -18 -69 -66c-13 -35 -25 -80 -48 -228c-17 -112 -33 -236 -53 -337c-30 -142 -183 -238 -254 -238c-42 0 -64 19 -64 41c1 19 15 54 25 72c2 3 10 8 14 10c33 -38 70 -59 98 -59c18 0 28 15 37 59c27 151 40 238 66 405c25 159 70 277 172 345
c43 30 94 44 126 44z" />
    <glyph glyph-name="t_t" unicode="tt" horiz-adv-x="592" 
d="M81 402h30c2 0 6 3 6 5c12 47 15 59 23 79c5 13 48 51 124 73c5 2 9 -9 8 -12c-8 -13 -13 -28 -20 -54c-7 -31 -11 -50 -17 -86c0 -2 1 -6 3 -6l152 1c5 0 7 3 8 5c11 47 18 79 26 99c5 13 48 51 124 73c5 2 9 -9 7 -12c-7 -13 -12 -28 -19 -54c-7 -31 -14 -70 -21 -106
c0 -2 2 -6 4 -6c44 0 96 4 105 8c1 -4 -1 -17 -3 -20c-8 -13 -30 -28 -48 -33c-20 -5 -38 -5 -64 -7c-2 0 -4 -4 -5 -6c-15 -79 -34 -187 -38 -225c-2 -25 2 -39 17 -39c25 0 63 33 87 62c2 0 5 -4 5 -7c0 -10 -5 -33 -9 -42c-30 -43 -114 -108 -180 -108
c-36 0 -52 37 -47 99c3 37 32 191 47 260c0 2 -1 5 -3 5l-155 1c-2 0 -4 -4 -5 -6c-15 -79 -34 -187 -38 -225c-2 -25 2 -39 17 -39c25 0 53 23 77 52c2 0 5 -4 5 -7c0 -10 -5 -33 -9 -42c-30 -43 -106 -98 -170 -98c-35 0 -52 37 -47 99c3 37 32 191 47 260c0 2 -1 5 -3 5
c-27 0 -49 1 -64 3c0 2 -1 6 0 9c6 10 37 41 43 42z" />
    <glyph glyph-name="u0162_u0068" unicode="&#x162;h" horiz-adv-x="1011" 
d="M919 416c44 0 47 -53 35 -118c-17 -89 -33 -156 -35 -195c0 -14 2 -19 9 -19c14 0 31 13 54 33c1 -2 3 -5 3 -9c0 -10 -2 -23 -4 -29c-31 -42 -106 -94 -164 -94c-25 0 -33 31 -24 82c12 73 25 140 40 215c7 26 5 47 -7 47c-22 0 -67 -38 -107 -106
c-18 -32 -30 -62 -40 -105c-9 -35 -11 -66 -3 -88c-19 -17 -104 -48 -117 -48c-6 0 -12 7 -13 12c-2 10 0 31 3 53c25 153 65 358 89 510c-20 -3 -41 -3 -75 -3h-117c-2 0 -8 -6 -8 -9c-17 -95 -61 -379 -70 -459c-1 -20 0 -35 20 -42c15 -5 41 -9 74 -13
c3 -5 -2 -30 -6 -34c-57 0 -112 3 -169 3s-117 -3 -173 -3c-1 7 2 29 6 34c28 4 49 7 62 10c27 6 36 18 46 63c20 100 63 365 74 444c0 2 -2 7 -5 7c-17 1 -73 1 -90 0c-15 -1 -34 -3 -56 -30c-18 -22 -30 -50 -50 -87c-6 -1 -32 6 -36 14c16 41 37 112 46 159c1 3 5 6 7 6
c30 -9 66 -14 91 -14h354c37 0 64 1 85 2c4 16 7 27 16 33c19 10 92 29 117 33c4 -1 10 -12 9 -17c-12 -19 -21 -55 -30 -98c-19 -98 -36 -191 -52 -280c1 -1 4 -1 5 0c63 76 137 140 206 140zM292 -31c27 0 55 -36 49 -83c-9 -62 -65 -105 -142 -120c-5 5 -13 25 -11 32
c61 23 74 37 76 60c2 20 -10 37 -55 50c-1 5 1 17 3 21c14 16 57 40 80 40z" />
    <glyph glyph-name="Tcaron_h" unicode="&#x164;h" horiz-adv-x="1011" 
d="M919 416c44 0 47 -53 35 -118c-17 -89 -33 -156 -35 -195c0 -14 2 -19 9 -19c14 0 31 13 54 33c1 -2 3 -5 3 -9c0 -10 -2 -23 -4 -29c-31 -42 -106 -94 -164 -94c-25 0 -33 31 -24 82c12 73 25 140 40 215c7 26 5 47 -7 47c-22 0 -67 -38 -107 -106
c-18 -32 -30 -62 -40 -105c-9 -35 -11 -66 -3 -88c-19 -17 -104 -48 -117 -48c-6 0 -12 7 -13 12c-2 10 0 31 3 53c25 153 65 358 89 510c-20 -3 -41 -3 -75 -3h-117c-2 0 -8 -6 -8 -9c-17 -95 -61 -379 -70 -459c-1 -20 0 -35 20 -42c15 -5 41 -9 74 -13
c3 -5 -2 -30 -6 -34c-57 0 -112 3 -169 3s-117 -3 -173 -3c-1 7 2 29 6 34c28 4 49 7 62 10c27 6 36 18 46 63c20 100 63 365 74 444c0 2 -2 7 -5 7c-17 1 -73 1 -90 0c-15 -1 -34 -3 -56 -30c-18 -22 -30 -50 -50 -87c-6 -1 -32 6 -36 14c16 41 37 112 46 159c1 3 5 6 7 6
c30 -9 66 -14 91 -14h354c37 0 64 1 85 2c4 16 7 27 16 33c19 10 92 29 117 33c4 -1 10 -12 9 -17c-12 -19 -21 -55 -30 -98c-19 -98 -36 -191 -52 -280c1 -1 4 -1 5 0c63 76 137 140 206 140zM397 642c-6 -3 -16 -5 -22 -6c-15 19 -95 96 -118 117c2 5 15 24 19 24
c7 0 103 -47 117 -55c2 -1 9 -2 12 0c26 12 137 55 143 55s13 -22 11 -27c-32 -20 -140 -90 -162 -108z" />
    <glyph glyph-name="gamma_gamma" unicode="&#x3b3;&#x3b3;" horiz-adv-x="829" 
d="M471 293c-74 0 -161 -129 -216 -279c-5 -11 -9 -30 -10 -35c-10 -43 -34 -190 -47 -213c-3 -6 -16 -8 -22 -8c-23 0 -88 36 -87 64c2 23 33 76 78 160c7 13 20 42 25 56c12 37 15 73 14 108c-2 91 -33 144 -85 144c-30 0 -60 -7 -101 -47c-1 1 -5 4 -5 7c-1 10 0 30 3 35
c49 88 125 131 171 131c43 0 88 -28 89 -119c1 -43 -6 -95 -24 -173c-1 -2 5 -4 7 0c75 168 167 292 265 292c49 0 102 -21 102 -134c0 -36 -8 -90 -19 -145c-1 -2 4 -4 6 0c50 117 97 193 131 235c21 26 41 44 64 44s52 -23 58 -32c1 -5 0 -16 -3 -19
c-82 -32 -220 -224 -258 -333c-4 -13 -6 -20 -8 -30c-8 -49 -28 -201 -34 -216c-3 -6 -19 -9 -25 -9c-23 0 -84 36 -81 63c4 26 36 93 70 166c6 13 17 41 19 55c22 133 6 232 -77 232z" />
    <glyph glyph-name="u03BB_u03BB" unicode="&#x3bb;&#x3bb;" horiz-adv-x="791" 
d="M633 -17c-24 0 -38 21 -45 50c-14 56 -19 242 -19 251c0 2 -4 2 -5 -1c-30 -57 -75 -143 -116 -198c-47 -62 -86 -102 -150 -102c-50 0 -68 41 -75 93c-8 60 -14 206 -14 215c-1 1 -3 2 -5 0c-41 -55 -77 -144 -107 -215c-12 -30 -19 -73 -21 -88c-1 -2 -13 -5 -16 -6
c-33 0 -71 30 -71 41c2 20 30 67 50 97c38 63 122 184 157 241c4 9 5 14 6 21c0 19 -2 50 -8 84c-9 63 -31 86 -70 86c-17 0 -41 -5 -62 -16c-1 0 -5 3 -5 6c-1 8 6 25 8 29c40 46 93 63 123 63c66 0 98 -44 117 -224c13 -116 19 -180 29 -252c9 -55 20 -67 40 -67
c12 0 29 14 48 41c48 63 104 176 133 239c5 9 7 22 7 29c-2 31 -1 34 -7 67c-14 87 -45 109 -89 109c-19 0 -46 -6 -75 -22c-1 1 -5 3 -5 6c-1 8 5 26 7 29c45 50 106 75 143 75c73 0 107 -47 127 -227c14 -117 19 -204 30 -276c9 -66 21 -73 34 -73c11 0 29 11 52 32
c1 0 5 -5 5 -8c1 -11 -4 -31 -9 -37c-42 -58 -96 -92 -142 -92z" />
    <glyph glyph-name=".notdef" horiz-adv-x="500" 
d="M-30 0v700h500v-700h-500zM220 395l170 255h-340zM250 350l170 -255v510zM50 50h340l-170 255zM20 605v-510l170 255z" />
    <glyph glyph-name="space" unicode=" " horiz-adv-x="185" 
 />
    <glyph glyph-name="exclam" unicode="!" horiz-adv-x="322" 
d="M296 594c9 0 26 -4 34 -11c-1 -18 -99 -320 -121 -369c-6 -5 -29 -16 -41 -16c-5 0 -12 5 -13 7c-2 29 -6 290 -3 339c-1 8 12 25 25 30c31 14 95 21 119 20zM174 132c18 0 35 -6 46 -17c12 -13 16 -32 16 -48c0 -21 -8 -44 -26 -60c-16 -15 -39 -21 -60 -21
c-19 0 -37 8 -47 20c-9 12 -14 26 -14 42c0 24 8 46 29 64c18 15 38 20 56 20z" />
    <glyph glyph-name="quotedbl" unicode="&#x22;" horiz-adv-x="370" 
d="M123 633c10 14 81 52 91 52c3 -1 8 -4 10 -6c1 -4 1 -9 1 -17c-3 -41 -38 -161 -69 -208c-14 -23 -34 -44 -54 -58c-6 -1 -24 1 -25 4c14 43 45 173 46 233zM288 633c10 14 81 52 91 52c2 0 9 -3 11 -6c1 -4 0 -11 0 -19c-3 -41 -38 -158 -68 -205
c-14 -23 -35 -45 -55 -59c-6 -1 -23 1 -25 4c14 43 45 173 46 233z" />
    <glyph glyph-name="numbersign" unicode="#" horiz-adv-x="471" 
d="M334 459l37 130c4 4 37 12 42 13c1 0 5 -2 6 -3l-41 -137c0 -1 2 -3 4 -3c37 0 77 1 99 6c1 -3 -7 -32 -9 -36c-30 -29 -57 -45 -110 -45c-3 0 -6 -3 -7 -4l-28 -95c0 -2 2 -5 4 -5c35 0 69 1 97 6c1 -3 -6 -32 -10 -38c-29 -30 -61 -46 -110 -47c-2 0 -4 -3 -4 -5
c-10 -40 -30 -111 -38 -139c-1 -2 -5 -3 -7 -3c-3 0 -29 17 -30 20c8 27 26 96 35 127h-93c-2 0 -4 -2 -4 -4c-14 -43 -35 -117 -43 -141c-1 -2 -6 -3 -7 -3c-6 2 -28 18 -29 21c10 43 25 88 35 127c-54 0 -83 2 -91 4l28 81c23 -3 53 -5 86 -5l29 103c-22 0 -78 2 -88 4
l29 74c24 0 52 -1 80 -1l33 118c0 2 39 13 42 13c1 0 5 -2 6 -4l-36 -122c0 -3 1 -5 3 -6zM314 384h-89c-2 0 -7 -3 -8 -5l-28 -93c0 -1 1 -5 3 -5h91z" />
    <glyph glyph-name="dollar" unicode="$" horiz-adv-x="513" 
d="M264 380c1 -1 3 -3 5 1l36 168c0 1 -1 3 -3 3c-67 -4 -95 -46 -95 -90c0 -36 22 -61 57 -82zM266 210l-34 -166c0 -3 1 -5 3 -5c47 1 99 22 99 85c-1 39 -30 70 -62 89c-2 1 -6 -2 -6 -3zM164 -85l18 82c0 4 -2 5 -4 5c-49 5 -110 25 -128 30c-10 21 -11 106 -10 142
c1 4 30 11 36 11c24 -109 62 -129 113 -141c2 -1 4 0 5 2l38 181c-1 5 -1 6 -3 7c-80 48 -134 94 -134 174c0 115 90 175 214 178c2 0 4 2 5 4l15 68c4 2 29 7 34 7c2 0 5 0 8 -1l-19 -74c0 -2 2 -4 3 -4c24 -2 55 -7 80 -11c21 -3 40 -7 52 -7c-14 -41 -25 -86 -35 -132
c-3 -3 -35 -4 -36 -1c6 81 -10 106 -68 116c-1 0 -3 -1 -4 -3l-39 -182c1 -5 3 -6 4 -7c72 -45 149 -86 149 -171c0 -113 -96 -181 -231 -187c-2 0 -4 -2 -5 -3l-16 -77c-5 -3 -29 -9 -36 -9c-2 0 -5 1 -6 3z" />
    <glyph glyph-name="percent" unicode="%" horiz-adv-x="753" 
d="M608 347c69 0 107 -50 107 -117c0 -92 -46 -151 -80 -177c-42 -32 -85 -41 -124 -41c-69 0 -103 48 -104 114c0 74 29 138 74 175c31 26 78 46 127 46zM278 596c71 0 106 -52 106 -115c0 -102 -53 -158 -84 -181c-42 -30 -81 -38 -119 -38c-69 0 -104 48 -104 114
c0 75 29 139 75 176c31 25 78 44 126 44zM130 15c168 202 326 398 495 600c9 5 39 8 47 9c2 -1 5 -8 4 -10c-45 -48 -439 -536 -523 -633h-9c-4 5 -15 27 -14 34zM577 310c-47 0 -69 -113 -70 -170c-1 -71 20 -89 40 -89c43 0 67 103 68 167c2 59 -10 92 -38 92zM245 559
c-50 0 -67 -120 -68 -171c-2 -69 19 -87 38 -87c44 0 68 96 69 165c2 58 -9 93 -39 93z" />
    <glyph glyph-name="ampersand" unicode="&#x26;" horiz-adv-x="735" 
d="M503 329c55 0 89 -12 133 -12c22 0 34 6 34 26c0 21 -15 50 -33 70c3 9 59 50 75 55c14 -7 22 -37 22 -65c0 -69 -61 -151 -142 -163c-42 -152 -163 -271 -310 -271c-150 0 -216 118 -216 238c0 67 23 135 83 191c38 36 92 65 121 65c52 0 76 -48 80 -84c1 -2 2 -2 3 -1
c26 35 43 74 44 136c1 18 -3 42 -7 59c10 14 70 56 88 59c10 -8 13 -39 13 -49c-2 -93 -71 -200 -199 -346c-28 -31 -63 -70 -79 -85c-3 -3 -1 -9 -1 -11c23 -42 69 -83 157 -83c102 0 141 79 140 157c0 5 -1 14 -3 18c-5 12 -16 17 -37 17c-37 0 -70 -22 -96 -85
c-3 -2 -7 -2 -9 -1c-5 2 -15 12 -19 22c19 63 77 143 158 143zM215 400c-20 0 -44 -22 -44 -107c0 -37 9 -81 17 -98c2 -4 6 -5 8 -3c18 17 34 34 52 60c10 14 13 35 13 58c-1 55 -22 90 -46 90z" />
    <glyph glyph-name="quoteright" unicode="&#x2019;" horiz-adv-x="233" 
d="M89 407c-5 -2 -28 7 -32 11c62 56 87 102 87 141c0 26 -13 49 -23 64c6 11 71 58 91 60c6 0 12 -1 16 -3c7 -10 13 -33 13 -56c0 -73 -80 -175 -152 -217z" />
    <glyph glyph-name="parenleft" unicode="(" horiz-adv-x="414" 
d="M88 200c0 261 159 468 335 570c6 0 19 -23 18 -27c-144 -107 -258 -316 -260 -551c-2 -142 35 -267 103 -356c1 -5 -19 -25 -25 -26c-50 29 -173 173 -171 390z" />
    <glyph glyph-name="parenright" unicode=")" horiz-adv-x="399" 
d="M347 380c0 -261 -160 -468 -335 -570c-6 0 -21 23 -20 28c144 107 260 315 262 550c1 142 -38 270 -103 356c-1 6 19 25 25 26c50 -29 172 -173 171 -390z" />
    <glyph glyph-name="asterisk" unicode="*" horiz-adv-x="380" 
d="M272 531c28 6 97 26 125 36c3 -1 7 -12 6 -14c-6 -12 -23 -34 -33 -39c-25 -10 -61 -22 -89 -29c21 -21 75 -74 93 -85c1 -2 0 -8 -3 -11c-13 -8 -47 -6 -58 0c-28 18 -49 39 -70 55c-11 -35 -27 -84 -33 -117c-1 -1 -5 -1 -7 -1c-21 3 -37 35 -32 58c4 20 12 50 20 77
c-26 -6 -98 -23 -124 -27c-3 1 -7 7 -8 10c7 12 24 42 32 43c28 8 54 12 90 22c-18 18 -58 65 -71 82c-5 6 -4 16 2 20c12 8 40 16 50 15c13 -21 37 -52 59 -75c9 29 24 75 32 92c6 8 38 12 62 8c1 0 3 -4 2 -8c-11 -18 -35 -89 -45 -112z" />
    <glyph glyph-name="plus" unicode="+" horiz-adv-x="547" 
d="M503 261c0 -10 -11 -52 -18 -53c-11 -2 -109 0 -175 -2c-4 0 -7 -7 -7 -9c-1 -61 2 -175 0 -183c-2 -7 -48 -19 -59 -20c-2 0 -8 1 -8 2c-1 15 1 112 0 210c-74 -1 -116 -1 -191 -1c-1 1 -2 8 -2 10c1 11 10 53 13 60c10 -3 56 -2 114 -2h66v62c0 53 -1 114 -2 128
c10 4 58 12 64 12c3 0 5 -2 5 -35c0 -28 1 -95 0 -157c0 -4 2 -10 6 -10h192c2 -1 2 -10 2 -12z" />
    <glyph glyph-name="comma" unicode="," horiz-adv-x="225" 
d="M-41 -151c-1 1 -2 7 -1 8c67 47 102 93 102 148c0 31 -17 66 -27 83c14 16 75 62 95 70c5 2 20 3 24 0c7 -8 19 -33 19 -69c0 -110 -109 -218 -178 -249c-6 -3 -28 4 -34 9z" />
    <glyph glyph-name="hyphen" unicode="-" horiz-adv-x="310" 
d="M65 245c71 0 183 4 212 7c3 -2 4 -11 3 -15c-4 -17 -31 -61 -37 -64c-19 -7 -186 -11 -207 -11c-1 3 -3 10 -3 14c4 18 27 69 32 69z" />
    <glyph glyph-name="period" unicode="." horiz-adv-x="225" 
d="M108 137c18 0 35 -8 46 -18c12 -14 16 -35 16 -51c0 -21 -9 -45 -27 -62c-16 -14 -38 -20 -59 -20c-19 0 -36 8 -47 20c-9 12 -14 28 -14 44c0 24 8 48 29 66c17 15 37 21 56 21z" />
    <glyph glyph-name="slash" unicode="/" horiz-adv-x="450" 
d="M482 681c2 -1 4 -6 4 -8c-10 -24 -357 -661 -430 -765c-6 -9 -49 -23 -60 -25c-3 1 -7 5 -7 8c96 154 390 690 435 775c2 5 49 15 58 15z" />
    <glyph glyph-name="zero" unicode="0" horiz-adv-x="508" 
d="M328 596c128 0 176 -93 176 -210c0 -132 -51 -303 -167 -369c-34 -20 -81 -29 -121 -29c-131 0 -178 92 -177 212c1 114 41 280 149 353c46 31 95 43 140 43zM311 560c-22 0 -41 -14 -55 -33c-52 -71 -81 -234 -82 -368c0 -95 24 -133 63 -133c20 0 36 13 44 22
c55 62 89 256 89 396c0 102 -32 116 -59 116z" />
    <glyph glyph-name="one" unicode="1" horiz-adv-x="508" 
d="M408 31c1 -3 -3 -31 -8 -35c-60 0 -107 4 -166 4c-57 0 -106 -4 -161 -4c-2 6 1 32 5 35c27 4 43 6 62 10c31 7 39 28 46 59c9 42 19 107 33 190c13 80 25 153 27 180c2 17 -4 33 -19 36c-12 2 -34 5 -57 7c-4 5 4 32 8 34c80 6 156 27 210 49c4 2 15 -4 15 -8
c-9 -38 -17 -74 -30 -156c-12 -80 -39 -245 -48 -327c-4 -37 -2 -59 21 -65c26 -5 40 -7 62 -9z" />
    <glyph glyph-name="two" unicode="2" horiz-adv-x="508" 
d="M228 496c-39 0 -74 -12 -125 -59c-6 -2 -21 22 -20 27c70 90 143 132 218 132c85 0 152 -68 152 -155c0 -78 -34 -139 -131 -223c-44 -38 -84 -71 -124 -102c-2 -1 -3 -7 0 -7c28 -2 140 -3 182 -1c21 2 44 11 79 69c5 4 29 -10 29 -15c-13 -35 -49 -123 -71 -150
c-8 -13 -27 -14 -57 -15c-70 -3 -206 3 -271 3c-21 0 -53 -1 -69 -1c0 5 1 26 4 31c77 51 141 101 204 165c64 66 94 125 94 199c0 54 -33 102 -94 102z" />
    <glyph glyph-name="three" unicode="3" horiz-adv-x="508" 
d="M316 596c81 0 137 -58 137 -127c0 -60 -42 -100 -112 -136c-2 -1 -2 -3 -1 -4c71 -26 126 -81 126 -150c0 -77 -43 -142 -119 -183c-53 -29 -106 -38 -154 -38c-47 0 -91 11 -119 27c-16 9 -26 18 -31 36c-7 25 -8 67 -6 95c3 6 25 13 29 13c18 -57 43 -87 67 -104
c23 -17 51 -27 84 -27c67 0 113 53 113 132c1 69 -44 124 -127 124c-13 0 -18 -1 -31 -2c-1 7 18 50 24 54c99 16 137 54 137 111c0 49 -28 91 -90 91c-36 0 -72 -14 -116 -52c-6 -1 -17 23 -16 29c47 49 115 111 205 111z" />
    <glyph glyph-name="four" unicode="4" horiz-adv-x="508" 
d="M492 166l-94 1c-2 0 -5 -3 -5 -5l-27 -178c-40 0 -110 -6 -139 -10l33 186c0 3 -2 6 -4 6c-80 0 -160 0 -239 1c0 9 7 35 12 45c81 92 304 333 346 378c8 0 22 -2 40 -2c19 0 36 2 44 2c-13 -72 -41 -253 -54 -346c-1 -1 2 -5 5 -5l102 3c-6 -23 -14 -47 -20 -76z
M116 236c51 0 101 0 152 1c2 0 5 3 5 5l43 226c-2 1 -3 1 -4 0c-27 -27 -152 -168 -197 -227c-1 -2 0 -5 1 -5z" />
    <glyph glyph-name="five" unicode="5" horiz-adv-x="508" 
d="M445 601c3 0 18 -10 17 -15c-4 -21 -29 -68 -46 -87c-21 -25 -38 -30 -61 -30c-55 0 -99 7 -124 7c-3 0 -8 -3 -11 -6c-8 -14 -20 -39 -24 -53c-1 -2 0 -8 3 -10c43 -22 143 -70 183 -98c53 -38 82 -77 82 -137c0 -142 -146 -213 -248 -213c-86 0 -143 36 -167 73
c-5 8 -8 21 -8 30c0 14 24 58 32 70c4 2 13 6 17 6c31 -60 84 -131 168 -131c63 0 87 41 87 91c0 41 -22 74 -67 107c-47 35 -144 85 -164 102c-1 6 1 30 4 38c32 79 82 180 109 223c9 14 24 21 29 21c22 0 77 -5 136 -5c29 0 38 5 53 17z" />
    <glyph glyph-name="six" unicode="6" horiz-adv-x="508" 
d="M515 604c-158 -74 -235 -166 -276 -241c-2 -2 0 -7 3 -5c44 26 88 37 115 37c70 0 134 -59 135 -158c0 -101 -51 -184 -148 -228c-29 -14 -71 -23 -104 -23c-135 0 -192 91 -192 195c0 217 220 396 455 456c6 -2 15 -29 12 -33zM270 328c-13 0 -31 -5 -44 -12
c-7 -3 -13 -11 -17 -19c-15 -40 -22 -85 -22 -125c0 -95 30 -143 80 -143c52 0 92 82 92 167c0 91 -34 132 -89 132z" />
    <glyph glyph-name="seven" unicode="7" horiz-adv-x="508" 
d="M544 587c3 -1 5 -16 4 -19c-51 -114 -305 -510 -346 -594c-2 -3 -5 -5 -8 -6c-12 1 -35 13 -41 18c-3 4 -1 20 0 23c63 103 237 360 284 449c0 2 -1 7 -2 7c-42 1 -172 2 -241 -2c-33 -3 -47 -25 -83 -77c-5 -3 -30 13 -33 17c25 63 54 138 66 190c22 -8 49 -9 81 -9h207
c39 0 85 1 112 3z" />
    <glyph glyph-name="eight" unicode="8" horiz-adv-x="508" 
d="M328 596c100 0 155 -61 155 -126c0 -60 -37 -89 -117 -140c-3 -2 -3 -3 0 -5c72 -55 102 -97 103 -151c0 -104 -107 -186 -236 -186c-136 0 -187 73 -187 135c0 49 29 81 146 152c3 2 3 3 0 6c-44 36 -77 78 -77 132c-1 61 30 110 80 144c42 28 87 39 133 39zM302 558
c-45 0 -74 -37 -74 -81c-1 -45 27 -77 101 -128c3 -1 4 -3 7 0c36 33 50 66 50 109c1 53 -32 100 -84 100zM260 28c50 0 85 35 85 85c-1 44 -31 76 -116 141c-2 2 -5 3 -7 1c-45 -39 -67 -74 -67 -120c1 -61 45 -107 105 -107z" />
    <glyph glyph-name="nine" unicode="9" horiz-adv-x="508" 
d="M70 -50c-5 2 -17 27 -13 34c146 66 226 153 276 245c2 4 -1 6 -4 5c-53 -28 -97 -41 -125 -41c-89 0 -140 77 -141 160c0 95 51 174 135 216c32 15 73 27 118 27c128 0 189 -97 189 -205c0 -206 -186 -381 -435 -441zM289 556c-50 0 -94 -74 -94 -158
c0 -97 42 -135 98 -135c13 0 32 5 45 12c5 3 12 12 14 19c15 39 20 83 20 118c0 92 -25 144 -83 144z" />
    <glyph glyph-name="colon" unicode=":" horiz-adv-x="316" 
d="M193 382c18 0 35 -7 46 -17c12 -14 16 -33 16 -49c0 -21 -8 -44 -26 -60c-16 -15 -38 -21 -60 -21c-18 0 -37 8 -47 21c-9 12 -14 25 -14 41c0 25 8 46 29 64c17 15 37 21 56 21zM150 132c18 0 35 -6 46 -17c12 -13 16 -32 16 -48c0 -21 -8 -44 -26 -61
c-17 -14 -38 -20 -60 -20c-18 0 -37 8 -47 20c-9 12 -14 26 -14 42c0 24 8 46 29 64c17 15 37 20 56 20z" />
    <glyph glyph-name="semicolon" unicode=";" horiz-adv-x="316" 
d="M192 382c18 0 35 -7 46 -17c12 -14 16 -33 16 -49c0 -21 -8 -44 -26 -60c-17 -15 -38 -21 -60 -21c-18 0 -37 8 -47 21c-9 12 -14 25 -14 41c0 25 8 46 29 64c17 15 37 21 56 21zM3 -151c-1 1 -2 7 -1 8c67 47 101 93 101 148c0 31 -17 66 -27 83c14 16 75 62 96 70
c4 2 20 3 23 0c8 -8 20 -33 20 -69c0 -110 -110 -218 -179 -249c-6 -3 -27 4 -33 9z" />
    <glyph glyph-name="less" unicode="&#x3c;" horiz-adv-x="547" 
d="M461 397c-22 -19 -231 -123 -291 -154c-4 -2 -2 -6 -1 -7c33 -19 290 -138 314 -163c3 -4 -15 -49 -21 -58c-1 -2 -6 -4 -8 -4c-41 31 -299 164 -391 200c-2 7 11 48 14 51c85 40 361 182 395 209c2 0 5 -3 6 -5c0 -15 -9 -63 -17 -69z" />
    <glyph glyph-name="equal" unicode="=" horiz-adv-x="547" 
d="M487 298l-439 -2c-2 1 -4 6 -4 9c1 12 10 55 12 60c10 -3 56 -2 115 -2h332c1 -2 2 -6 1 -10c-1 -5 -11 -54 -17 -55zM487 117l-440 -2c-2 1 -3 4 -3 9c1 8 10 54 13 60c10 -3 55 -2 114 -2h332c1 -2 1 -6 1 -10c-1 -4 -11 -54 -17 -55z" />
    <glyph glyph-name="greater" unicode="&#x3e;" horiz-adv-x="547" 
d="M85 85c23 19 232 123 292 154c3 2 2 6 1 7c-33 19 -290 138 -314 163c-4 4 15 49 20 58c1 2 6 4 8 4c42 -31 299 -164 392 -200c1 -7 -11 -48 -14 -51c-85 -40 -361 -182 -395 -209c-2 0 -5 3 -6 5c0 15 9 63 16 69z" />
    <glyph glyph-name="question" unicode="?" horiz-adv-x="387" 
d="M230 301c0 -11 4 -32 22 -51c2 -4 -2 -13 -5 -16c-9 -8 -58 -30 -70 -33c-9 -1 -19 0 -26 2c-32 14 -46 46 -44 68c2 13 9 27 17 32c16 12 87 45 115 63c17 11 28 25 28 40c0 44 -45 76 -107 94l-25 7c-10 3 -12 14 -11 19c0 10 24 49 49 65c6 4 27 12 36 12
c45 0 91 -17 121 -45c38 -35 49 -76 49 -109c0 -32 -16 -53 -26 -61c-23 -21 -67 -43 -104 -64c-10 -6 -18 -14 -19 -23zM183 132c18 0 36 -6 47 -17c12 -13 15 -32 15 -48c0 -21 -8 -44 -26 -61c-16 -14 -38 -20 -59 -20c-19 0 -37 8 -48 20c-9 12 -13 26 -13 42
c0 24 7 46 28 64c18 15 38 20 56 20z" />
    <glyph glyph-name="at" unicode="@" horiz-adv-x="837" 
d="M603 59c42 0 132 55 132 196c0 202 -140 282 -272 282c-128 0 -328 -95 -328 -403c0 -205 98 -284 159 -299c22 -6 51 -9 70 -7c2 -2 2 -12 1 -15c-17 -17 -51 -22 -77 -22c-44 0 -232 80 -232 334c0 131 50 238 126 319c87 95 202 146 322 146c189 0 295 -152 295 -288
c0 -222 -180 -318 -296 -317c-40 0 -52 36 -47 80c2 11 2 25 6 45c0 3 -4 5 -6 2c-45 -61 -125 -126 -172 -126c-22 0 -39 13 -49 39c-5 15 -9 35 -9 61c0 74 33 171 89 229c35 38 120 92 207 92c54 0 83 -6 111 -15c-9 -22 -15 -43 -21 -68c-17 -85 -36 -181 -36 -219
c-1 -27 5 -46 27 -46zM376 92c22 0 55 24 89 87c11 20 18 49 29 96l16 65c-13 9 -37 12 -52 12c-36 0 -63 -14 -87 -75c-13 -33 -23 -75 -24 -121c0 -48 15 -64 29 -64z" />
    <glyph glyph-name="A" unicode="A" horiz-adv-x="605" 
d="M-49 31c71 10 86 16 122 77c79 131 195 357 229 431c11 20 22 47 29 66c7 0 27 -2 47 -2c21 0 38 2 45 2c2 -16 5 -39 8 -56c18 -98 53 -326 73 -415c18 -86 23 -92 98 -103c5 -3 1 -31 -5 -34c-25 0 -62 3 -145 3c-82 -1 -125 -3 -149 -3c-5 6 -4 30 2 34
c11 1 46 6 55 12c9 7 12 18 12 22c-1 32 -15 117 -21 148c0 3 -3 7 -7 7c-15 2 -51 2 -76 2c-38 0 -58 0 -71 -1c-4 0 -7 -3 -10 -8c-25 -47 -61 -119 -64 -139c-2 -14 -1 -28 23 -33c16 -4 35 -7 51 -10c4 -4 -1 -31 -7 -34c-29 0 -76 3 -129 3c-43 0 -90 -3 -114 -3
c-5 4 -1 31 4 34zM310 463l-90 -184c-1 -3 -1 -7 2 -7c9 -1 30 -1 57 -1c36 0 53 0 60 1c2 0 4 2 4 5c-5 31 -19 131 -29 186c-1 1 -3 1 -4 0z" />
    <glyph glyph-name="B" unicode="B" horiz-adv-x="613" 
d="M-4 32c26 3 49 6 64 10s25 18 31 46c8 33 27 140 38 209c17 101 28 168 34 223c3 27 -3 36 -22 41c-15 5 -38 9 -55 11c-6 6 -3 30 5 34c28 1 98 -3 145 -3c83 1 118 2 162 2c87 0 175 -29 175 -130c0 -75 -56 -121 -127 -141c-1 -1 -1 -4 0 -6c67 -18 129 -59 129 -140
c0 -86 -57 -146 -142 -175c-47 -17 -105 -22 -164 -22c-43 0 -209 6 -277 6c-3 7 -2 31 4 35zM335 563c-7 0 -19 -1 -23 -4c-4 -1 -7 -7 -9 -14c-7 -38 -23 -133 -33 -197c-1 -4 2 -8 5 -8c11 -2 21 -2 32 -2c77 0 131 44 131 122c0 63 -35 103 -103 103zM302 31
c70 0 125 51 125 142c0 73 -49 125 -140 125c-7 0 -15 0 -19 -1s-6 -4 -7 -9c-11 -71 -28 -175 -32 -212c0 -7 2 -17 7 -23c15 -16 49 -22 66 -22z" />
    <glyph glyph-name="C" unicode="C" horiz-adv-x="621" 
d="M560 443c-2 73 -11 99 -42 118c-22 14 -50 20 -88 20c-123 0 -209 -137 -210 -309c-1 -156 77 -228 186 -228c21 0 48 5 62 11c31 13 62 36 110 94c7 -3 22 -20 21 -27c-22 -45 -70 -95 -108 -114c-40 -21 -99 -26 -145 -26c-197 0 -278 120 -278 270
c0 141 72 274 214 335c51 22 105 33 174 33c35 0 73 -4 108 -10c29 -4 51 -8 64 -9c-12 -42 -25 -106 -31 -155c-7 -8 -30 -7 -37 -3z" />
    <glyph glyph-name="D" unicode="D" horiz-adv-x="700" 
d="M-8 31c26 4 41 5 61 9c22 4 32 20 39 46c7 36 66 382 69 436c2 25 -1 37 -24 42c-11 4 -36 6 -50 8c-6 8 0 31 6 35c17 0 81 -4 137 -4c78 1 72 1 154 1c99 0 165 -25 215 -73c42 -42 69 -110 69 -189c0 -121 -49 -214 -127 -273c-93 -72 -189 -77 -295 -77
c-67 0 -177 5 -258 5c-4 5 -1 30 4 34zM231 84c-1 -14 6 -27 13 -32c16 -13 47 -18 76 -18c42 0 78 14 118 55c51 54 83 150 83 249c0 71 -19 143 -62 182c-30 28 -71 43 -115 43c-9 0 -20 -1 -27 -2c-5 -1 -11 -9 -12 -15c-12 -61 -61 -375 -74 -462z" />
    <glyph glyph-name="E" unicode="E" horiz-adv-x="577" 
d="M-8 31c30 3 50 7 65 11c18 4 27 18 35 50c18 83 62 357 69 426c3 28 0 40 -20 45c-12 4 -36 8 -54 10c-2 6 2 30 6 34c36 0 103 -4 150 -4h200c38 0 104 2 123 5c2 -1 3 -6 3 -7c-12 -31 -26 -93 -36 -151c-6 -5 -34 -5 -39 -1c-1 27 -4 60 -9 78c-6 19 -19 26 -36 28
c-27 2 -108 4 -134 1c-5 -1 -10 -8 -11 -12c-10 -50 -24 -139 -35 -208c0 -3 3 -6 7 -6c32 0 81 0 112 1c20 1 34 10 43 31c5 10 12 26 17 41c4 5 34 3 39 -1c-5 -17 -15 -69 -21 -100c-6 -35 -10 -76 -14 -104c-5 -5 -32 -3 -38 -1c1 20 -2 41 -4 52c-4 16 -13 24 -30 27
c-17 2 -84 3 -112 3c-4 0 -8 -3 -8 -7c-10 -62 -21 -139 -29 -187c-3 -21 7 -31 17 -34c23 -6 97 -5 139 -5c29 0 51 6 74 31c22 25 39 46 63 87c6 3 31 -8 34 -15c-8 -30 -36 -107 -57 -139c-8 -11 -13 -12 -39 -13c-80 0 -152 3 -307 3c-72 0 -131 -3 -166 -3
c-3 4 -1 31 3 34z" />
    <glyph glyph-name="F" unicode="F" horiz-adv-x="540" 
d="M0 31c13 2 39 6 52 9c25 5 34 22 40 50c17 77 64 367 70 425c4 35 -5 44 -23 48c-15 6 -34 8 -51 11c-3 4 1 29 6 33c17 0 57 -4 141 -4h223c72 0 99 1 115 4c2 0 4 -4 4 -7c-15 -37 -31 -97 -41 -152c-5 -7 -32 -6 -36 -2c-1 25 -3 45 -6 66c-4 22 -14 41 -43 44
c-33 2 -111 3 -133 1c-6 -1 -13 -11 -14 -17c-9 -40 -29 -164 -36 -214c0 -4 3 -7 5 -7c28 0 90 -1 123 1c29 1 40 15 49 34c5 11 9 19 16 39c7 5 34 2 39 -3c-6 -25 -16 -64 -21 -99c-6 -37 -11 -73 -14 -101c-6 -6 -31 -7 -37 -1c-2 18 -3 32 -5 45c-4 25 -17 30 -31 32
c-21 3 -98 4 -126 4c-4 0 -8 -6 -8 -9c-10 -57 -19 -114 -25 -160s2 -53 28 -60c13 -4 38 -6 59 -10c1 -5 -1 -28 -7 -34c-46 0 -109 3 -163 3c-58 0 -109 -3 -154 -3c-3 6 0 30 4 34z" />
    <glyph glyph-name="G" unicode="G" horiz-adv-x="691" 
d="M591 44c2 -2 -3 -20 -6 -22c-38 -12 -135 -39 -223 -39c-197 0 -296 87 -296 268c0 149 88 284 221 337c57 23 107 33 190 33c35 0 83 -6 113 -11c35 -6 62 -10 78 -12c-16 -43 -34 -114 -40 -167c-5 -7 -33 -6 -38 -2c2 78 -12 107 -34 123c-28 23 -65 29 -111 29
c-115 0 -226 -131 -226 -338c0 -124 56 -219 162 -219c14 0 29 4 36 9c11 8 15 23 17 28c7 26 15 86 19 115c4 34 3 50 -24 58c-17 5 -34 7 -59 11c-3 7 3 31 6 35c25 0 59 -4 156 -4c95 0 114 3 136 4c4 -6 -2 -31 -6 -37l-32 -6c-21 -7 -27 -11 -38 -62
c-4 -17 -13 -78 -15 -100c-1 -17 0 -22 14 -31z" />
    <glyph glyph-name="H" unicode="H" horiz-adv-x="735" 
d="M89 572c-4 3 -1 31 4 34c20 0 76 -3 145 -3c74 0 128 3 150 3c4 -3 0 -31 -5 -34c-17 -2 -35 -4 -46 -8c-21 -7 -31 -17 -36 -48c-9 -46 -20 -114 -29 -171c0 -3 1 -6 3 -8c8 -2 19 -2 116 -2c50 0 102 0 115 1c2 0 7 5 7 7c9 52 20 124 27 180c3 22 -2 35 -18 40
c-15 4 -29 6 -52 9c-3 7 0 31 5 35c22 0 54 -4 143 -4c87 0 119 3 148 3c3 -4 1 -27 -4 -34c-21 -3 -37 -5 -49 -10c-19 -6 -29 -17 -35 -49c-22 -117 -52 -303 -66 -418c-4 -28 1 -47 23 -53c14 -4 31 -6 56 -11c2 -4 -1 -30 -7 -34c-21 0 -68 3 -150 3
c-98 0 -134 -3 -152 -3c-3 5 0 31 4 36c19 2 35 5 48 8c19 5 29 15 36 47c10 47 23 122 33 187c0 3 -2 8 -6 8c-15 0 -74 1 -118 1c-106 -1 -109 -2 -113 -3c-1 -1 -5 -6 -5 -7c-9 -62 -22 -134 -27 -179c-4 -30 -2 -46 18 -52c13 -5 33 -7 53 -10c3 -5 -3 -35 -7 -36
c-19 0 -91 3 -153 3c-85 0 -131 -3 -148 -3c-5 4 0 31 3 34c20 4 35 5 49 8c28 6 37 21 46 64c12 59 61 368 65 412c2 25 0 42 -19 47c-16 5 -33 8 -52 10z" />
    <glyph glyph-name="I" unicode="I" horiz-adv-x="357" 
d="M88 573c-3 7 0 30 5 33c28 0 65 -3 143 -3c79 0 116 3 152 3c5 -4 2 -30 -4 -34c-21 -3 -34 -4 -49 -8c-22 -5 -29 -20 -35 -49c-6 -30 -19 -106 -32 -192c-19 -121 -31 -195 -35 -234c-1 -18 -5 -41 23 -48c11 -4 28 -6 51 -10c3 -5 -1 -31 -6 -34c-53 1 -97 3 -149 3
c-52 -1 -118 -3 -156 -3c-3 6 -1 30 3 34c20 2 39 5 51 8c21 5 35 13 43 58c7 33 27 146 39 227c17 106 24 156 28 200c2 21 -3 33 -20 38c-15 5 -26 7 -52 11z" />
    <glyph glyph-name="J" unicode="J" horiz-adv-x="349" 
d="M88 572c-3 7 1 31 5 35c29 0 78 -4 146 -4c71 0 128 4 149 4c4 -6 2 -31 -3 -36c-18 -3 -38 -6 -48 -9c-17 -4 -26 -15 -32 -48c-22 -122 -49 -313 -72 -429c-13 -65 -29 -129 -70 -178c-62 -75 -141 -109 -199 -124c-6 3 -18 20 -19 28c-1 4 1 8 3 10c42 14 71 39 94 70
c19 25 25 53 40 122c30 143 71 418 81 498c2 24 2 42 -18 50c-17 5 -34 7 -57 11z" />
    <glyph glyph-name="K" unicode="K" horiz-adv-x="665" 
d="M88 573c-2 6 1 28 5 33c37 0 65 -3 143 -3c69 0 119 4 152 4c2 -6 1 -30 -4 -35c-21 -3 -35 -5 -51 -9c-20 -6 -28 -20 -34 -49c-22 -125 -52 -318 -67 -423c-2 -26 2 -45 23 -50c14 -4 34 -6 54 -10c2 -4 -2 -31 -6 -34c-48 0 -102 3 -154 3c-53 -1 -120 -3 -153 -3
c-3 5 -1 30 3 34c23 3 39 6 52 9c25 5 36 19 44 61c14 77 57 338 66 416c3 24 -2 40 -19 45c-11 4 -35 8 -54 11zM453 573c-2 7 1 28 5 33c29 0 68 -3 120 -3c78 0 109 3 133 3c4 -4 1 -29 -5 -34c-68 -11 -93 -29 -136 -71c-56 -55 -138 -132 -173 -163l-1 -5
c34 -68 126 -216 169 -264c11 -13 25 -21 37 -26c18 -9 34 -9 60 -12c3 -5 -2 -30 -7 -34c-47 -6 -172 -3 -203 11c-26 12 -44 35 -54 48c-35 50 -88 145 -118 209c-2 3 -8 15 -13 19c-1 4 3 13 5 15c43 22 121 81 205 171c37 41 47 58 48 72c1 7 -4 15 -17 19
c-12 4 -32 8 -55 12z" />
    <glyph glyph-name="L" unicode="L" horiz-adv-x="574" 
d="M87 572c-4 5 1 32 6 34c41 0 73 -3 143 -3c67 0 118 3 154 4c4 -5 0 -28 -4 -34c-24 -2 -41 -5 -52 -9c-24 -7 -28 -23 -34 -44c-10 -44 -65 -400 -69 -439c-2 -19 10 -29 16 -30c21 -4 97 -6 134 -5c43 1 81 31 147 149c6 2 31 -10 33 -16c-6 -23 -44 -126 -75 -164
c-8 -13 -26 -19 -46 -19c-83 0 -218 4 -296 4c-83 0 -138 -4 -158 -4c-2 8 0 31 5 35c33 4 44 6 64 11c20 6 28 16 35 39c16 71 67 380 72 442c1 20 0 34 -23 40c-11 4 -33 6 -52 9z" />
    <glyph glyph-name="M" unicode="M" horiz-adv-x="831" 
d="M98 572c-2 7 4 32 8 34c58 -1 147 -3 218 -3c0 -16 8 -43 12 -63c27 -100 77 -281 89 -318c2 -1 3 -1 5 0c33 52 142 238 180 315c12 23 24 47 30 66c71 -1 143 3 206 3c2 -3 1 -29 -3 -34c-25 -4 -40 -7 -55 -11c-22 -6 -27 -24 -31 -50c-8 -72 -29 -341 -32 -412
c0 -26 3 -48 25 -55c14 -5 35 -9 58 -13c2 -6 0 -29 -6 -34c-37 0 -96 3 -160 3c-70 0 -124 -3 -144 -3c-4 7 -2 30 2 34c26 5 36 7 51 11c18 5 26 17 32 58c10 78 34 279 40 367c0 1 -3 0 -5 -1c-54 -102 -213 -386 -250 -464c-8 -3 -37 -5 -43 0c-22 106 -73 356 -99 455
c-1 1 -3 0 -4 -1c-27 -106 -68 -278 -80 -349c-7 -36 3 -57 26 -63c19 -6 40 -10 59 -13c3 -5 0 -31 -5 -35c-21 0 -73 4 -140 4c-37 0 -91 -4 -113 -4c-3 8 -1 30 4 34c25 3 40 7 54 12c26 8 37 24 52 63c26 78 96 348 109 406c4 16 2 39 -23 48c-18 5 -41 8 -67 13z" />
    <glyph glyph-name="N" unicode="N" horiz-adv-x="695" 
d="M69 572c-2 8 2 29 6 34c51 0 119 -3 170 -3c19 0 36 0 46 1c6 -13 14 -30 29 -57c47 -83 179 -309 225 -385c1 0 4 0 4 1c21 116 45 286 50 343c3 28 -6 48 -37 55c-18 4 -41 7 -64 11c-4 6 0 31 5 34c26 0 57 -3 134 -3c70 0 94 3 117 3c3 -4 0 -31 -6 -34
c-15 -3 -27 -5 -40 -9c-29 -8 -43 -19 -52 -61c-19 -88 -43 -237 -65 -371c-7 -43 -14 -101 -19 -138c-9 0 -22 2 -52 2c-26 0 -39 -1 -48 -2c-53 98 -219 400 -265 474c-2 0 -2 -1 -3 -2c-16 -85 -52 -315 -57 -358c-4 -42 4 -57 35 -65c15 -4 32 -8 58 -11
c4 -3 -1 -28 -5 -35c-32 0 -74 4 -125 4c-41 0 -88 -4 -128 -4c-2 8 0 29 4 34c24 4 34 6 53 10c29 7 40 25 49 60c13 54 51 251 74 395c3 20 -6 56 -31 65c-16 6 -38 9 -62 12z" />
    <glyph glyph-name="O" unicode="O" horiz-adv-x="699" 
d="M311 -18c-166 0 -247 97 -247 248c0 94 33 213 127 294c63 63 143 97 231 97c160 0 242 -102 244 -250c2 -96 -27 -194 -85 -262c-70 -88 -172 -127 -270 -127zM330 24c29 0 56 11 78 30c73 65 110 211 110 344c0 116 -38 183 -115 183c-127 0 -190 -219 -190 -375
c0 -120 44 -182 117 -182z" />
    <glyph glyph-name="P" unicode="P" horiz-adv-x="586" 
d="M317 231c-18 0 -42 2 -59 5c-4 0 -6 -4 -6 -6c-9 -53 -16 -98 -20 -134c-3 -19 -2 -48 23 -54c19 -5 41 -8 62 -11c4 -5 0 -30 -7 -34c-42 0 -84 3 -149 3c-51 0 -112 -3 -164 -3c-3 9 0 28 3 34c21 4 34 5 52 10c26 6 35 25 40 54c23 115 60 349 68 414
c4 29 2 49 -23 55c-14 4 -32 6 -50 8c-2 8 2 31 6 34c26 0 91 -3 144 -3c78 1 102 1 165 1c80 0 183 -33 183 -161c0 -82 -46 -145 -110 -179c-44 -22 -91 -32 -158 -33zM291 275c89 0 154 63 154 165c1 81 -43 122 -109 122c-6 0 -17 -2 -24 -5c-3 -2 -8 -9 -9 -16
c-9 -39 -29 -162 -43 -257c0 -4 1 -7 6 -7c8 -1 16 -2 25 -2z" />
    <glyph glyph-name="Q" unicode="Q" horiz-adv-x="699" 
d="M331 24c29 0 55 10 76 29c70 65 111 194 111 347c0 116 -38 181 -113 181c-127 0 -192 -213 -192 -375c0 -119 45 -182 118 -182zM423 621c160 0 243 -104 243 -252c0 -98 -28 -193 -87 -262c-37 -46 -102 -89 -164 -107c28 -9 54 -25 90 -45c67 -38 123 -66 180 -66
c46 0 82 9 109 21c4 -3 6 -29 2 -34c-64 -55 -139 -77 -206 -77c-45 0 -85 15 -118 36c-58 37 -106 84 -159 123c-11 8 -53 24 -80 33c-109 30 -168 112 -169 238c0 96 33 216 128 297c64 62 145 95 231 95z" />
    <glyph glyph-name="R" unicode="R" horiz-adv-x="621" 
d="M84 572c-2 6 2 32 4 35c17 0 90 -4 147 -4c88 0 136 2 170 2c116 0 169 -62 169 -139c0 -86 -64 -139 -145 -165c-2 -1 -3 -5 -2 -7c16 -43 79 -164 119 -217c24 -32 39 -40 88 -46c2 -6 -1 -31 -7 -35c-55 -3 -159 -1 -189 16c-24 14 -37 36 -43 46
c-30 52 -63 127 -89 188c-6 12 -16 23 -26 24c-4 0 -13 1 -17 1c-2 0 -7 -5 -7 -7c-11 -63 -18 -119 -26 -175c-3 -30 5 -43 25 -48c18 -6 34 -8 53 -11c4 -5 -2 -29 -7 -34c-30 0 -67 4 -154 4c-85 0 -130 -3 -153 -4c-2 8 -1 29 4 34c11 2 39 6 52 9c22 5 33 16 40 47
c21 98 67 385 72 434c3 22 -4 36 -21 41c-12 4 -36 9 -57 11zM435 450c0 68 -40 112 -101 112c-4 0 -18 0 -22 -2c-5 -2 -8 -7 -10 -13c-12 -65 -27 -157 -38 -231c-1 -5 2 -8 5 -8c47 -1 80 9 98 17c39 19 68 50 68 125z" />
    <glyph glyph-name="S" unicode="S" horiz-adv-x="497" 
d="M80 191c13 -73 28 -113 59 -139c22 -19 63 -30 94 -30c52 0 91 29 91 82c1 40 -15 72 -93 135c-70 55 -135 103 -135 190c0 119 91 192 221 192c52 0 88 -8 106 -11c29 -6 49 -8 59 -10c-12 -38 -22 -86 -34 -149c-5 -5 -33 -7 -36 -1c-2 58 -7 90 -28 108
c-16 17 -49 25 -74 25c-56 0 -91 -41 -91 -91c0 -37 16 -61 44 -88c37 -33 72 -53 110 -83c54 -43 83 -86 83 -144c0 -111 -94 -195 -248 -195c-64 0 -137 25 -162 43c-9 15 -8 120 -2 159c4 7 30 9 36 7z" />
    <glyph glyph-name="T" unicode="T" horiz-adv-x="623" 
d="M109 31c28 4 49 6 62 10c27 5 36 18 45 63c20 100 64 367 76 445c0 3 -2 7 -5 7c-17 2 -56 1 -73 0c-15 -1 -35 -4 -57 -31c-18 -21 -39 -55 -59 -92c-6 -1 -31 5 -35 14c17 43 39 121 48 164c1 3 5 6 7 6c30 -9 66 -14 91 -14h328c32 0 70 1 110 11c1 -1 5 -7 5 -10
c-20 -50 -31 -100 -45 -166c-6 -5 -34 -6 -37 0c-1 39 -4 65 -7 85c-4 22 -21 31 -37 32c-22 1 -68 2 -91 0c-2 -1 -8 -5 -8 -9c-17 -95 -62 -381 -69 -460c-2 -20 -1 -37 20 -43c16 -4 40 -8 73 -12c3 -5 -2 -30 -7 -34c-57 0 -100 3 -169 3c-99 0 -129 -3 -172 -3
c-1 7 2 29 6 34z" />
    <glyph glyph-name="U" unicode="U" horiz-adv-x="681" 
d="M70 572c-3 7 0 30 5 34c26 0 79 -3 148 -3c83 0 126 3 150 3c2 -6 -1 -28 -5 -34c-18 -3 -31 -4 -42 -7c-25 -5 -37 -21 -43 -52c-13 -72 -28 -168 -37 -221c-4 -27 -11 -88 -11 -124c0 -66 40 -116 133 -116c71 0 136 21 165 158c17 75 42 220 49 287c4 39 -4 57 -34 64
c-14 4 -34 7 -56 11c-5 4 -1 31 4 34c23 0 65 -3 125 -3c58 0 97 3 123 3c4 -4 1 -30 -4 -34c-15 -3 -33 -6 -47 -10c-32 -9 -41 -27 -50 -70c-12 -59 -35 -182 -48 -248c-41 -223 -152 -262 -276 -262c-95 0 -157 27 -191 69c-24 29 -33 68 -32 110c1 56 32 230 49 351
c3 27 -3 45 -25 51c-12 3 -31 7 -50 9z" />
    <glyph glyph-name="V" unicode="V" horiz-adv-x="597" 
d="M29 571c-4 7 -1 32 5 35c33 0 96 -3 148 -3c64 0 119 3 138 4c4 -4 3 -30 -2 -37c-14 -3 -35 -6 -45 -10c-15 -5 -16 -18 -15 -31c6 -55 45 -302 59 -381c1 -1 4 -2 5 0c37 60 163 295 190 354c12 28 14 52 -13 58c-17 5 -34 8 -57 12c-3 7 1 30 5 34c14 0 70 -3 127 -3
c68 0 97 4 117 4c3 -5 2 -31 -3 -35c-22 -4 -39 -7 -54 -14c-32 -13 -43 -32 -77 -87c-46 -71 -121 -214 -188 -331c-34 -60 -64 -116 -80 -148c-9 1 -25 2 -46 2c-22 0 -35 -1 -45 -2c-5 39 -11 87 -18 134c-21 135 -40 254 -54 336c-13 84 -24 92 -54 101
c-12 4 -25 5 -43 8z" />
    <glyph glyph-name="W" unicode="W" horiz-adv-x="834" 
d="M39 573c-2 8 0 31 6 34c21 0 65 -4 137 -4c66 0 119 4 146 4c3 -4 1 -30 -4 -34c-22 -5 -39 -9 -51 -14c-9 -5 -11 -15 -12 -30c4 -72 17 -264 24 -331c1 -1 3 -1 4 -1c60 112 146 289 184 378c7 -1 20 -2 39 -2c22 0 33 1 40 1c8 -83 48 -339 59 -398c0 -1 3 -1 4 0
c49 95 123 257 150 324c10 28 16 51 -11 59c-15 6 -36 10 -60 14c-4 7 -1 31 5 34c24 0 73 -4 124 -4c43 0 88 4 114 4c3 -3 2 -31 -4 -35c-18 -3 -32 -6 -47 -11c-27 -9 -42 -28 -60 -62c-68 -128 -207 -416 -247 -507c-10 1 -27 2 -40 2c-17 0 -36 -1 -43 -2
c-11 90 -47 333 -58 390h-4c-46 -89 -149 -293 -195 -390c-7 1 -21 2 -40 2c-16 0 -36 -1 -42 -2c-8 122 -26 405 -37 506c-4 26 -6 55 -27 62c-14 6 -36 9 -54 13z" />
    <glyph glyph-name="X" unicode="X" horiz-adv-x="607" 
d="M-29 31c26 3 42 6 62 12c22 6 40 20 72 56c53 58 116 133 156 183c1 2 2 7 1 8c-25 63 -56 138 -79 188c-25 58 -38 76 -70 84c-17 5 -34 7 -50 10c-6 7 0 32 5 34c37 0 90 -3 144 -3c65 0 118 2 139 3c4 -3 4 -31 -2 -35c-8 -1 -26 -4 -36 -8c-11 -3 -12 -13 -10 -20
c15 -40 40 -106 58 -150c1 -4 4 -4 6 -1c45 52 96 123 107 143c7 11 7 24 -8 28c-14 4 -24 6 -44 9c-5 7 -1 31 5 34c13 0 61 -3 100 -3c73 0 102 3 122 3c5 -5 1 -31 -4 -34c-28 -5 -46 -9 -59 -14c-29 -12 -41 -19 -81 -64c-37 -42 -85 -102 -119 -143c-2 -3 -2 -8 -1 -10
c25 -63 58 -140 85 -197c33 -71 45 -92 78 -103c13 -4 35 -8 52 -10c5 -4 0 -31 -5 -35c-23 0 -68 4 -154 4c-70 0 -113 -3 -148 -3c-4 5 -2 31 0 34c24 3 41 8 50 12c10 5 9 15 8 19c-16 48 -44 118 -69 175c-1 2 -4 1 -5 0c-75 -93 -118 -151 -128 -168
c-6 -12 -6 -24 15 -28l49 -10c3 -4 0 -30 -6 -33c-29 0 -85 3 -125 2l-115 -3c-4 6 -3 30 4 34z" />
    <glyph glyph-name="Y" unicode="Y" horiz-adv-x="551" 
d="M88 31c27 3 44 6 58 10c27 7 35 27 40 55c10 46 21 108 26 143c2 16 1 29 -4 48c-11 45 -45 144 -67 204c-23 61 -35 66 -59 73c-14 4 -32 6 -47 8c-5 5 0 32 5 34c35 0 85 -3 137 -3c66 0 129 2 147 3c5 -4 2 -30 -3 -34c-10 -1 -29 -5 -35 -7c-15 -4 -18 -13 -14 -27
c11 -51 52 -176 66 -209c0 -2 3 -1 5 1c32 44 112 158 133 192c8 15 11 33 -6 39c-15 5 -34 8 -52 10c-4 7 -1 32 6 35c25 0 77 -3 114 -3c43 0 86 3 115 3c4 -5 2 -30 -5 -35c-18 -3 -42 -7 -50 -9c-30 -9 -43 -20 -80 -66c-51 -62 -123 -165 -150 -206
c-8 -13 -14 -23 -18 -43c-8 -45 -17 -101 -23 -148c-4 -29 -5 -51 22 -58c15 -4 33 -6 60 -10c1 -5 -1 -29 -8 -34c-38 0 -94 3 -164 3c-68 0 -99 -3 -154 -3c-4 7 1 30 5 34z" />
    <glyph glyph-name="Z" unicode="Z" horiz-adv-x="589" 
d="M102 420c-4 -3 -33 8 -34 14c24 64 43 127 57 183c29 -11 71 -14 99 -14h227c56 0 97 1 135 3c2 -2 1 -19 -1 -24c-42 -63 -297 -412 -382 -528c-2 -2 -1 -7 1 -7c20 -2 134 -4 189 -4c20 1 36 6 54 22c24 21 68 70 100 125c5 2 29 -9 31 -17c-9 -30 -45 -123 -75 -163
c-7 -9 -20 -13 -75 -13l-322 3c-29 -1 -71 -1 -92 -3c-3 2 -5 19 -4 23c74 84 354 467 398 535c2 3 0 4 -3 4c-53 0 -122 0 -147 -1c-47 -1 -67 -6 -96 -42c-19 -24 -39 -59 -60 -96z" />
    <glyph glyph-name="bracketleft" unicode="[" horiz-adv-x="385" 
d="M249 701c-2 0 -6 -4 -7 -7c-9 -32 -41 -206 -71 -394c-32 -201 -53 -352 -55 -394c0 -7 5 -15 10 -17c20 -6 105 -7 152 -7c1 -6 -12 -51 -19 -51c-39 -2 -119 -3 -173 0c-25 2 -34 5 -41 9c5 55 135 873 144 908c1 2 4 6 6 6h210c2 -4 -10 -50 -18 -51
c-21 -2 -117 -2 -138 -2z" />
    <glyph glyph-name="backslash" unicode="\" horiz-adv-x="414" 
d="M153 686c3 0 8 0 10 -1c32 -155 142 -662 179 -792c-1 -2 -6 -6 -9 -7c-15 3 -54 19 -57 28c-20 62 -136 590 -171 740c5 6 37 27 48 32z" />
    <glyph glyph-name="bracketright" unicode="]" horiz-adv-x="371" 
d="M343 752c6 0 10 -5 11 -8c0 -10 -131 -865 -144 -909c0 -2 -4 -6 -6 -6c-54 -1 -135 -1 -211 -1c-2 7 6 51 13 51c29 0 124 2 145 4c2 0 6 4 7 7c9 28 49 257 70 392c32 201 51 346 53 395c0 7 -1 19 -7 20c-19 3 -83 5 -149 5c-2 6 5 48 15 48c44 1 166 2 203 2z" />
    <glyph glyph-name="asciicircum" unicode="^" horiz-adv-x="457" 
d="M110 265c-8 -11 -50 -14 -58 -14c-5 0 -11 5 -11 7c21 28 145 286 162 333c1 2 42 11 46 11c30 -68 142 -296 168 -332c0 -1 -1 -5 -4 -6c-9 -5 -60 -19 -63 -17c-18 19 -107 207 -124 241c0 1 -6 2 -7 0c-24 -55 -95 -207 -109 -223z" />
    <glyph glyph-name="underscore" unicode="_" horiz-adv-x="500" 
d="M557 -182v-51h-569v51h569z" />
    <glyph glyph-name="quoteleft" unicode="&#x2018;" horiz-adv-x="233" 
d="M239 682c6 1 28 -5 32 -9c-63 -56 -86 -104 -86 -143c0 -27 13 -49 23 -65c-7 -10 -71 -57 -92 -59c-5 -1 -12 1 -15 2c-7 11 -13 34 -13 57c0 72 80 174 151 217z" />
    <glyph glyph-name="a" unicode="a" horiz-adv-x="490" 
d="M463 123c1 0 5 -3 5 -5c0 -9 -4 -30 -7 -37c-43 -58 -119 -96 -156 -96c-32 0 -38 30 -30 78l8 51c1 3 -3 4 -5 1c-50 -65 -119 -130 -179 -130c-46 0 -63 60 -63 105c0 79 30 173 90 233c41 42 124 93 215 93c50 0 88 -5 122 -13c-10 -22 -19 -45 -24 -70
c-15 -62 -37 -184 -39 -222c0 -17 3 -24 11 -24c9 0 24 7 52 36zM192 87c23 0 65 39 96 102c9 17 17 48 28 96l17 66c-13 9 -42 13 -58 13c-38 0 -65 -14 -90 -75c-13 -33 -22 -86 -22 -135c0 -50 12 -67 29 -67z" />
    <glyph glyph-name="b" unicode="b" horiz-adv-x="494" 
d="M394 416c46 0 69 -53 69 -116c-2 -89 -44 -176 -103 -228c-67 -59 -143 -88 -211 -88c-64 0 -96 51 -96 115c1 33 8 74 10 89c24 132 61 317 69 374c0 6 -2 16 -9 16c-11 0 -40 -5 -58 -12c-5 4 0 32 5 35c65 35 153 69 182 69c14 -1 18 -24 11 -62
c-18 -95 -41 -196 -62 -302c-1 -3 4 -2 5 -1c52 57 127 111 188 111zM220 36c16 0 35 11 52 30c35 42 63 129 64 204c0 41 -12 63 -33 63c-24 0 -60 -28 -90 -70c-27 -39 -41 -110 -41 -148c0 -39 11 -79 48 -79z" />
    <glyph glyph-name="c" unicode="c" horiz-adv-x="377" 
d="M230 364c-34 0 -66 -70 -66 -188c0 -67 22 -109 71 -109c28 0 66 14 114 64c1 0 5 -4 5 -7c0 -8 -3 -31 -7 -36c-55 -73 -136 -104 -197 -104c-43 0 -75 19 -91 49c-16 26 -21 62 -21 93c0 84 36 178 103 228c52 40 115 61 158 61c35 0 55 -8 67 -17c10 -7 12 -19 10 -27
c-4 -17 -33 -63 -51 -72c-4 -2 -12 0 -14 2c-25 32 -52 63 -81 63z" />
    <glyph glyph-name="d" unicode="d" horiz-adv-x="512" 
d="M38 105c0 71 22 168 87 235c33 33 129 75 185 75c7 0 25 0 39 -2c3 0 7 2 7 6c13 62 19 102 23 139c2 15 -1 24 -12 25s-37 -2 -59 -7c-2 7 4 28 8 32c44 22 148 58 184 58c15 0 14 -29 7 -66c-25 -145 -83 -441 -84 -491c0 -7 2 -18 10 -18c10 0 31 12 58 37
c2 -2 3 -4 3 -7c0 -5 -3 -28 -6 -34c-50 -62 -146 -116 -177 -116c-15 0 -24 20 -20 48c2 23 6 45 12 87c-1 1 -3 4 -5 2c-53 -64 -132 -124 -191 -124c-48 0 -69 58 -69 121zM200 79h1c28 0 67 34 95 80c12 19 18 29 25 59c7 32 17 92 18 103c0 11 -2 24 -7 29
c-13 15 -35 23 -61 23c-63 0 -104 -124 -104 -228c0 -39 11 -66 33 -66z" />
    <glyph glyph-name="e" unicode="e" horiz-adv-x="383" 
d="M232 370c-27 0 -62 -42 -73 -143c0 -3 2 -6 4 -5c27 7 59 19 77 35c15 12 25 35 25 64c0 32 -16 49 -33 49zM296 416c49 0 74 -32 74 -72c0 -44 -32 -79 -89 -111c-38 -22 -86 -40 -117 -51c-3 -1 -6 -4 -6 -6c-1 -6 -1 -8 -1 -11c0 -50 16 -96 71 -96c33 0 70 8 125 61
c1 0 4 -3 4 -5c0 -7 -1 -28 -6 -36c-39 -57 -129 -105 -202 -105c-94 0 -112 79 -112 144c0 98 43 181 86 219c34 31 121 69 173 69z" />
    <glyph glyph-name="f" unicode="f" horiz-adv-x="276" 
d="M34 352c-1 2 -1 5 1 8c6 15 29 39 36 42h38c3 1 5 3 5 4c22 98 64 159 138 213c37 28 89 51 120 51c30 1 52 -7 52 -24c0 -18 -34 -64 -54 -79c-3 -2 -13 -5 -15 -3c-21 20 -42 42 -61 42c-13 0 -23 -15 -30 -38c-11 -41 -19 -96 -28 -159c0 -3 2 -7 6 -7c28 0 68 2 93 6
c1 -4 -4 -23 -7 -27c-17 -16 -46 -27 -72 -29c-7 -1 -20 -2 -24 -2c-2 -1 -5 -4 -5 -6c-19 -120 -38 -256 -59 -357c-29 -142 -182 -238 -253 -238c-43 0 -64 20 -64 42s14 59 26 77c1 3 10 8 13 10c33 -38 70 -66 99 -66c18 0 26 15 36 66c27 150 63 381 76 464
c1 3 -1 7 -4 7c-21 0 -48 2 -63 3z" />
    <glyph glyph-name="g" unicode="g" horiz-adv-x="432" 
d="M475 400c2 -1 4 -12 3 -15c-7 -20 -27 -46 -47 -56c-11 -5 -26 -8 -38 -9v-19c0 -68 -33 -127 -81 -160c-45 -30 -89 -36 -106 -39c-6 0 -17 -1 -21 -2c-6 -1 -15 -6 -15 -12c0 -10 8 -16 30 -26c41 -17 89 -36 127 -59c45 -27 70 -50 70 -96c0 -39 -31 -86 -91 -122
c-54 -33 -106 -42 -141 -42c-119 0 -196 60 -196 125c0 34 60 66 123 98c2 1 1 3 0 4c-21 16 -41 36 -41 59c0 3 4 16 8 20c16 16 61 40 77 49c1 1 2 4 -1 4c-62 14 -89 60 -89 114c1 65 38 129 89 163c38 24 84 37 124 37c24 0 55 -8 96 -24c14 -5 36 -13 52 -13
c27 0 50 9 68 21zM213 -207c57 0 81 21 81 47c0 20 -15 41 -43 58c-38 24 -95 52 -117 52c-18 0 -71 -33 -71 -61c0 -48 66 -96 150 -96zM209 137c46 0 69 109 70 171c0 55 -18 73 -41 73c-42 0 -71 -95 -71 -169c0 -45 14 -75 42 -75z" />
    <glyph glyph-name="h" unicode="h" horiz-adv-x="500" 
d="M317 328c-22 0 -68 -39 -108 -107c-18 -32 -30 -63 -40 -105c-8 -35 -13 -61 -3 -85c-12 -15 -100 -47 -118 -49c-4 1 -12 8 -13 13c-2 9 2 31 5 53c26 161 67 345 92 499c2 17 2 31 -11 32c-13 0 -34 -6 -55 -12c-1 6 4 30 7 35c50 29 143 68 182 68c10 0 18 -11 8 -62
l-64 -332c0 -2 3 -2 5 0c62 79 141 140 205 140c48 0 48 -53 35 -124c-16 -89 -31 -155 -34 -189c0 -14 2 -19 9 -19c14 0 30 13 53 33c1 -2 4 -5 4 -9c0 -10 -4 -26 -6 -31c-31 -42 -111 -92 -161 -92c-26 0 -35 31 -26 82c12 73 25 137 41 212c7 34 5 49 -7 49z" />
    <glyph glyph-name="i" unicode="i" horiz-adv-x="268" 
d="M240 119c0 0 4 0 4 -2c1 -7 -1 -30 -4 -35c-48 -60 -120 -98 -160 -98c-35 0 -36 44 -27 92c12 67 33 156 46 222c2 8 0 16 -6 16c-9 0 -25 -8 -47 -23c-1 0 -4 1 -4 3c-1 8 2 27 6 31c57 53 129 91 162 91c22 0 22 -46 14 -84c-15 -73 -43 -191 -46 -228
c-1 -14 2 -20 9 -20c12 0 32 14 53 35zM216 595c20 0 34 -8 37 -13c4 -7 6 -29 5 -35c-4 -25 -15 -46 -33 -59c-10 -8 -59 -16 -69 -11c-14 9 -24 24 -26 44c-1 16 5 39 13 47c14 13 46 27 73 27z" />
    <glyph glyph-name="j" unicode="j" horiz-adv-x="282" 
d="M-47 -255c-9 3 -20 19 -19 27c72 40 88 69 108 160c24 103 58 300 65 364c1 7 -1 13 -7 13c-9 0 -36 -15 -58 -29c-1 0 -4 3 -4 7c-1 6 6 30 9 32c75 63 143 97 178 97c19 0 21 -37 13 -88c-12 -80 -28 -172 -47 -271c-20 -109 -51 -176 -109 -231
c-30 -28 -77 -62 -129 -81zM216 595c20 0 34 -8 37 -13c6 -9 6 -28 5 -35c-4 -28 -17 -47 -34 -60c-10 -7 -56 -15 -68 -10c-15 7 -24 24 -26 44c-1 16 4 39 13 47c15 14 46 27 73 27z" />
    <glyph glyph-name="k" unicode="k" horiz-adv-x="475" 
d="M253 670c14 0 17 -21 10 -61c-24 -124 -47 -232 -77 -383c-1 -6 5 -5 7 -3c46 56 155 193 222 193c32 0 50 -11 57 -22c2 -4 1 -16 -1 -23c-5 -19 -40 -63 -53 -68c-6 5 -40 22 -70 22c-31 0 -72 -52 -84 -69c-1 -1 -2 -4 1 -5c7 -6 20 -20 37 -47
c66 -102 86 -120 102 -120c17 0 33 9 62 44c1 0 5 -1 6 -4c3 -8 0 -31 -2 -35c-38 -59 -96 -104 -139 -104c-22 0 -39 11 -59 38c-25 35 -61 116 -79 138c-4 4 -9 3 -11 1c-4 -3 -11 -16 -14 -28c-4 -16 -8 -38 -10 -55c-3 -21 -1 -33 6 -48c-13 -16 -107 -49 -117 -49
c-11 0 -13 12 -13 27c0 13 1 27 16 103c21 107 76 384 82 435c4 22 1 31 -10 31c-12 0 -36 -4 -54 -11c-2 6 3 33 7 35c87 48 157 68 178 68z" />
    <glyph glyph-name="l" unicode="l" horiz-adv-x="258" 
d="M68 569c-2 5 3 32 7 34c54 33 145 67 175 67c14 -1 17 -25 8 -68c-24 -138 -83 -429 -87 -490c-2 -16 0 -28 12 -28c10 0 27 8 59 36c1 0 4 -4 4 -8s-2 -25 -7 -32c-45 -53 -120 -96 -164 -96c-30 0 -37 40 -29 100c13 97 73 380 85 475c1 11 -2 21 -10 21
c-11 0 -32 -3 -53 -11z" />
    <glyph glyph-name="m" unicode="m" horiz-adv-x="737" 
d="M40 284c-1 0 -3 2 -4 4c-3 7 -2 23 0 29c66 68 129 99 159 99c27 0 29 -43 20 -95l-8 -40c2 -1 4 -1 6 0c51 62 139 135 199 135c28 0 44 -27 40 -78c-1 -19 -4 -37 -7 -58c1 -1 3 0 4 1c40 51 130 135 200 135c47 0 42 -64 33 -123c-13 -72 -30 -148 -35 -189
c-1 -10 1 -19 9 -19s23 5 55 35c2 -1 4 -2 4 -7c0 -10 -4 -31 -6 -35c-57 -68 -132 -94 -163 -94c-32 0 -33 49 -23 96c12 62 27 131 41 204c5 23 4 42 -10 42c-19 0 -56 -23 -100 -97c-19 -33 -31 -71 -44 -129c-8 -36 -11 -61 -8 -73c-19 -13 -97 -42 -113 -43
c-4 1 -13 7 -13 15c5 46 47 201 57 289c3 23 0 38 -13 38c-24 0 -65 -37 -99 -89c-11 -19 -27 -48 -44 -115c-14 -55 -17 -75 -12 -95c-17 -11 -94 -41 -115 -43c-6 1 -11 9 -11 15c2 17 6 39 13 71c17 78 40 178 44 219c2 7 2 25 -7 25s-30 -14 -49 -30z" />
    <glyph glyph-name="n" unicode="n" horiz-adv-x="503" 
d="M39 282c-2 0 -5 1 -5 3c-1 7 2 31 5 34c55 59 127 97 157 97c21 0 32 -28 20 -92c-3 -17 -5 -32 -8 -44c1 -1 2 -1 4 -1c32 42 87 96 143 122c21 10 37 15 57 15c50 0 46 -68 31 -140c-12 -63 -29 -138 -32 -172c-1 -11 2 -19 8 -19c7 0 22 4 56 36c1 0 3 -1 4 -3
c0 -9 -4 -35 -6 -40c-53 -64 -130 -94 -162 -94c-33 0 -36 43 -25 101c12 59 26 112 42 192c5 30 6 50 -10 50c-21 0 -62 -36 -99 -96c-12 -19 -30 -64 -45 -126c-9 -41 -9 -58 -6 -77c-21 -14 -101 -44 -114 -44c-7 0 -13 10 -11 23c6 49 49 238 56 288c1 8 1 18 -8 18
c-12 0 -34 -14 -52 -31z" />
    <glyph glyph-name="o" unicode="o" horiz-adv-x="466" 
d="M305 416c89 0 128 -64 128 -144c0 -108 -45 -201 -139 -252c-34 -17 -93 -36 -136 -36c-82 0 -121 59 -121 148c0 85 33 181 106 230c48 33 111 54 162 54zM162 152c0 -82 20 -118 57 -118c60 0 87 124 87 220c0 55 -8 117 -56 117c-53 1 -88 -113 -88 -219z" />
    <glyph glyph-name="p" unicode="p" horiz-adv-x="502" 
d="M245 36c27 0 41 13 57 37c25 40 43 114 43 184c0 49 -13 70 -33 70c-22 0 -59 -24 -90 -69c-11 -16 -21 -43 -26 -67c-9 -36 -17 -87 -19 -104c0 -5 2 -17 6 -22c13 -18 36 -29 62 -29zM470 290c-1 -95 -34 -171 -87 -223c-48 -45 -122 -81 -172 -81c-12 0 -36 3 -48 7
c-6 -38 -16 -104 -18 -140c-2 -24 1 -36 23 -42c12 -2 33 -4 52 -6c2 -3 -2 -28 -6 -32c-87 1 -181 -10 -274 -24c-3 5 0 30 3 33c18 5 29 7 41 11c19 7 28 20 33 41c10 43 19 94 33 176c14 84 40 228 49 294c1 9 -1 17 -7 17c-7 0 -31 -12 -56 -32c-2 1 -4 3 -4 5
c-1 10 2 30 6 36c49 48 143 113 177 115c8 1 17 -14 16 -26c-1 -22 -6 -50 -18 -116c0 -2 3 -3 4 -2c61 67 132 115 180 115c40 0 74 -42 73 -126z" />
    <glyph glyph-name="q" unicode="q" horiz-adv-x="497" 
d="M443 -226c-78 -2 -213 -14 -274 -27c-3 4 -1 30 3 35c24 7 37 10 53 16c18 8 25 28 27 37c15 65 33 192 48 273c-1 1 -3 1 -4 0c-65 -84 -142 -124 -189 -124c-49 0 -70 59 -70 112c0 86 26 170 83 231c31 33 132 88 206 88c56 0 113 -11 144 -22
c-13 -33 -19 -62 -21 -73c-21 -118 -61 -387 -68 -477c0 -10 0 -27 17 -31c13 -4 29 -5 49 -7c3 -3 0 -28 -4 -31zM201 80c23 0 64 30 95 87c8 14 17 40 23 65c5 22 13 77 15 100c1 5 -1 15 -6 18c-17 12 -38 16 -58 16c-31 0 -49 -18 -64 -42c-26 -42 -39 -120 -39 -168
c0 -62 14 -76 34 -76z" />
    <glyph glyph-name="r" unicode="r" horiz-adv-x="355" 
d="M198 269c22 40 47 79 62 98c25 31 47 49 77 49c21 0 41 -13 48 -29c1 -3 1 -12 0 -15c-3 -25 -37 -79 -52 -96c-6 -5 -11 -5 -14 -4c-17 15 -35 30 -52 30c-15 0 -35 -21 -60 -80c-12 -27 -24 -63 -34 -112c-5 -26 -13 -61 -7 -81c-17 -13 -96 -42 -115 -45
c-4 1 -12 8 -12 16c9 56 42 198 52 268c4 27 6 46 -5 46c-8 0 -31 -10 -51 -28c-2 0 -5 2 -5 4c-1 8 3 28 6 32c60 59 122 94 151 94c26 0 24 -48 15 -102l-8 -45c1 -1 3 -1 4 0z" />
    <glyph glyph-name="s" unicode="s" horiz-adv-x="340" 
d="M243 417c34 0 64 -10 75 -25c2 -3 3 -14 1 -19c-6 -17 -27 -51 -41 -64c-5 -5 -15 -6 -16 -5c-25 33 -62 57 -86 57c-25 0 -35 -16 -35 -32c0 -23 16 -39 92 -88c52 -35 73 -62 73 -100c0 -39 -22 -82 -78 -117c-47 -30 -88 -39 -128 -39c-32 0 -61 8 -80 23
c-9 8 -17 22 -17 31c0 16 17 65 33 89c3 3 19 8 20 4c20 -65 73 -94 111 -94c25 0 39 14 39 31c0 24 -13 38 -79 84c-53 38 -73 67 -73 103c0 27 8 64 50 102c37 34 93 59 139 59z" />
    <glyph glyph-name="t" unicode="t" horiz-adv-x="311" 
d="M223 344c-15 -80 -34 -187 -37 -225c-2 -25 0 -40 15 -40c22 0 61 31 86 61c2 0 5 -4 5 -7c0 -12 -4 -32 -8 -41c-30 -43 -111 -108 -179 -108c-35 0 -52 37 -47 99c3 37 33 189 47 260c0 2 -1 5 -3 5c-27 0 -49 1 -64 3c-1 1 -1 7 0 9c6 10 37 41 43 42h30c2 0 6 3 6 5
c10 46 15 68 24 88c6 13 60 55 126 75c5 2 9 -9 8 -12c-7 -13 -14 -29 -21 -55c-7 -31 -13 -60 -19 -96c0 -2 1 -5 3 -5c44 0 96 4 105 7c1 -3 -1 -19 -4 -23c-8 -12 -29 -26 -49 -30c-19 -4 -38 -5 -62 -7c-3 0 -5 -3 -5 -5z" />
    <glyph glyph-name="u" unicode="u" horiz-adv-x="503" 
d="M98 292c3 13 2 20 -4 20c-9 0 -32 -10 -52 -26c-1 -1 -4 2 -4 3c-1 8 4 30 7 36c55 55 131 91 161 91c18 0 30 -17 15 -99c-17 -88 -34 -153 -40 -202c-1 -18 2 -31 14 -31c26 0 68 42 98 95c7 11 20 53 25 73c18 82 23 106 31 119c9 10 96 43 118 45c3 -1 7 -7 7 -12
c-6 -10 -12 -29 -18 -54c-16 -70 -40 -194 -43 -238c-1 -14 2 -25 10 -25c14 0 33 16 54 36c1 0 3 -3 4 -6c1 -8 -4 -31 -8 -38c-46 -59 -121 -95 -156 -95c-34 0 -38 37 -31 80c2 16 4 27 8 51c-1 1 -4 1 -5 0c-20 -27 -46 -54 -80 -83c-36 -31 -74 -48 -108 -48
s-59 27 -42 121z" />
    <glyph glyph-name="v" unicode="v" horiz-adv-x="426" 
d="M323 283c0 21 -12 52 -29 76c-1 4 0 13 7 18c26 16 71 39 93 39c13 -1 25 -30 25 -63c0 -77 -43 -158 -94 -216c-78 -88 -144 -135 -187 -152c-8 -3 -22 -2 -27 0c-17 22 -21 52 -22 135c0 47 2 144 2 168c-1 11 -1 25 -10 25c-10 0 -26 -11 -48 -29c-2 0 -5 1 -6 3
c-3 8 0 30 3 33c20 22 45 45 79 67c27 17 51 29 70 29c27 0 31 -40 31 -100c0 -38 -1 -126 -2 -166c0 -35 1 -52 7 -60c1 -1 6 -1 8 0c60 47 102 123 100 193z" />
    <glyph glyph-name="w" unicode="w" horiz-adv-x="625" 
d="M439 100c67 80 93 159 93 212c0 18 -7 37 -53 42c-2 5 4 22 7 25c26 15 85 36 116 37c8 -1 18 -20 18 -37c1 -36 -9 -71 -24 -104c-38 -88 -140 -228 -217 -283c-13 -5 -27 -7 -37 -8c-20 27 -34 131 -45 210h-5c-37 -60 -132 -186 -177 -210c-7 0 -21 1 -24 4
c-10 18 -9 69 -7 126l6 166c0 21 -3 34 -12 34c-10 0 -34 -14 -53 -33c-2 0 -7 2 -7 6c0 6 2 26 7 34c53 59 114 95 152 95c26 0 34 -36 32 -90c-1 -36 -5 -88 -7 -131c-1 -26 -2 -49 2 -56c1 -1 4 1 6 2c28 33 59 87 92 152c10 19 19 39 30 58c8 5 49 19 63 18
c5 -85 25 -247 37 -268c2 -2 6 -2 7 -1z" />
    <glyph glyph-name="x" unicode="x" horiz-adv-x="472" 
d="M57 254c-1 0 -4 1 -6 3c-3 8 -5 30 -4 34c30 49 100 125 151 125c20 0 36 -21 45 -44c11 -26 21 -53 34 -94c1 -3 4 -2 5 0c18 25 37 53 60 79c37 45 63 59 87 59c22 0 31 -23 31 -47c1 -40 -15 -80 -23 -93c-3 -6 -34 -18 -33 -11c-1 42 -9 62 -24 62
c-16 -1 -47 -37 -87 -92c-2 -3 -1 -3 -1 -6c37 -110 49 -142 74 -142c15 0 37 16 71 62c0 2 5 2 7 0c4 -8 3 -36 1 -40c-44 -83 -112 -125 -152 -125c-20 0 -38 8 -58 52c-8 17 -20 54 -35 98c-1 2 -3 2 -5 0c-26 -40 -57 -84 -86 -114c-20 -23 -44 -36 -66 -36
c-19 0 -39 14 -39 50c-1 39 22 90 47 118c3 5 22 2 22 -2c-3 -54 12 -61 22 -61c11 0 22 6 45 33c19 20 32 38 41 53c2 3 3 9 1 13c-13 40 -28 80 -36 100c-5 11 -11 25 -23 25c-15 0 -36 -22 -66 -59z" />
    <glyph glyph-name="y" unicode="y" horiz-adv-x="424" 
d="M168 416c26 0 43 -41 54 -96c15 -74 26 -176 29 -229c1 -2 2 -3 4 0c54 91 65 146 66 179c0 31 -7 58 -21 88c-1 3 3 11 11 18c25 19 72 43 83 43c12 0 19 -31 19 -49c-1 -34 -10 -82 -36 -138c-81 -170 -200 -332 -273 -403c-66 -65 -105 -80 -133 -80
c-15 0 -23 5 -23 15c0 15 47 101 62 116c3 3 10 7 15 6c21 -9 38 -13 50 -13c18 0 38 17 66 60c6 9 8 28 8 32c3 67 -23 214 -41 289c-8 33 -17 51 -28 51c-14 0 -35 -16 -59 -42c-1 -2 -6 1 -7 6c-1 10 2 30 6 37c34 47 100 110 148 110z" />
    <glyph glyph-name="z" unicode="z" horiz-adv-x="448" 
d="M345 380c26 0 60 31 83 54c2 2 7 0 8 -3c3 -9 3 -30 2 -34c-8 -16 -79 -82 -115 -115l-165 -158c-2 -2 -3 -7 -1 -7c7 -1 35 -5 80 -21c45 -17 71 -23 89 -23c38 0 65 20 105 86c1 1 10 0 11 -3c3 -7 2 -36 -1 -41c-28 -54 -106 -145 -187 -145c-33 0 -65 17 -104 35
c-36 15 -54 22 -72 22c-26 0 -53 -33 -60 -40c-2 -2 -7 -2 -10 1c-7 7 -13 29 -10 32c19 27 69 74 93 95c18 17 174 163 181 172c3 2 2 5 0 5c-12 -3 -48 0 -75 4c-18 3 -52 8 -65 8c-25 0 -50 -15 -76 -56c-1 -2 -6 -2 -8 -1c-8 4 -17 21 -15 26c8 18 56 100 79 126
c6 7 23 17 36 17c17 0 56 -8 88 -16c43 -11 83 -20 109 -20z" />
    <glyph glyph-name="braceleft" unicode="{" horiz-adv-x="424" 
d="M66 307c109 3 112 64 122 153c2 19 7 77 9 90c19 140 122 199 255 209c3 -3 8 -32 2 -36c-105 -19 -148 -62 -160 -141c-6 -47 -5 -106 -13 -157c-7 -43 -27 -110 -137 -135c-1 -2 -1 -4 -1 -6c104 -14 111 -83 104 -129c-9 -60 -30 -118 -38 -166
c-15 -93 55 -116 118 -125c0 -6 -12 -30 -16 -35c-103 -3 -209 45 -194 160c3 24 6 42 20 95c29 120 44 172 -85 188c1 8 9 33 14 35z" />
    <glyph glyph-name="bar" unicode="|" horiz-adv-x="297" 
d="M108 710h81v-1020h-81v1020z" />
    <glyph glyph-name="braceright" unicode="}" horiz-adv-x="421" 
d="M385 271c-110 -3 -124 -63 -127 -153c-1 -18 -5 -68 -7 -85c-17 -138 -125 -197 -257 -207c-3 4 -4 30 -1 34c108 21 151 61 162 140c7 47 4 100 12 151c7 43 25 114 134 137c1 3 1 4 1 6c-107 11 -106 83 -99 129c9 60 31 125 39 173c15 93 -54 116 -117 125
c-1 7 6 32 10 35c103 3 204 -42 194 -158c-3 -26 -9 -56 -19 -98c-24 -107 -54 -177 85 -194c0 -4 -6 -31 -10 -35z" />
    <glyph glyph-name="asciitilde" unicode="~" horiz-adv-x="547" 
d="M201 307c27 0 54 -9 98 -30c30 -14 54 -25 79 -25c31 0 71 15 114 64c0 1 10 0 12 -3c0 -7 -3 -37 -7 -49c-19 -34 -79 -87 -147 -87c-26 0 -58 14 -100 36c-30 14 -53 21 -80 21c-38 0 -99 -47 -117 -67c-3 -3 -8 1 -8 5c0 13 8 49 11 53c26 34 101 82 145 82z" />
    <glyph glyph-name="exclamdown" unicode="&#xa1;" horiz-adv-x="268" 
d="M6 -193c-9 0 -26 4 -35 11c1 19 99 321 122 370c6 5 29 15 41 15c5 0 12 -4 13 -6c2 -30 6 -291 2 -340c1 -8 -12 -25 -24 -30c-32 -14 -96 -21 -119 -20zM127 269c-18 0 -35 7 -46 18c-12 13 -16 32 -16 48c0 21 8 43 26 60c16 14 39 20 61 20c18 0 36 -7 46 -20
c9 -12 14 -26 14 -42c0 -24 -8 -46 -29 -64c-17 -15 -37 -20 -56 -20z" />
    <glyph glyph-name="cent" unicode="&#xa2;" horiz-adv-x="508" 
d="M372 454c-2 0 -3 -1 -4 -3l-57 -290c7 -1 13 -1 21 -1c47 0 98 19 129 43c3 -4 4 -33 -1 -39c-48 -55 -112 -75 -163 -84c-2 0 -4 -4 -4 -5l-16 -79c-6 -3 -28 -7 -38 -8c-1 0 -4 1 -5 3l17 83c1 2 -1 4 -2 4c-62 4 -110 34 -136 70c-21 31 -31 68 -30 111
c0 79 45 162 129 203c32 17 75 31 125 36l15 74c7 3 28 7 36 8c2 0 5 0 7 -1l-16 -80c28 0 57 -5 80 -13c6 -3 29 -13 34 -29c0 -5 -2 -15 -4 -20c-7 -12 -32 -38 -42 -44h-13c-15 21 -29 49 -62 61zM271 173l57 282c0 2 -2 4 -3 4c-69 -6 -113 -76 -113 -167
c0 -52 15 -100 59 -119z" />
    <glyph glyph-name="sterling" unicode="&#xa3;" horiz-adv-x="508" 
d="M125 306c7 77 21 145 71 201c66 74 144 88 182 88c62 0 85 -20 85 -34s-19 -56 -35 -73c-4 -1 -11 -1 -14 -1c-19 22 -47 65 -86 65c-12 0 -24 -5 -32 -23c-19 -35 -26 -150 -35 -218c0 -1 3 -5 5 -5c50 0 75 0 117 3c-1 -5 -2 -13 -5 -18c-10 -13 -23 -20 -39 -23
c-19 -4 -56 -6 -82 -6c-2 0 -5 -2 -5 -4c-14 -48 -39 -108 -108 -153c26 5 68 1 103 -4c26 -4 71 -12 95 -12c52 0 74 9 116 88h8c5 -4 13 -21 14 -29c-45 -117 -113 -174 -179 -174c-34 0 -49 5 -104 21c-52 15 -83 24 -109 24c-17 0 -42 -4 -74 -35c-3 0 -15 10 -15 13
c5 19 27 68 33 73c14 10 29 18 43 25c13 6 38 15 47 168c2 0 -53 2 -75 2v7l15 35c11 0 63 -1 63 -1z" />
    <glyph glyph-name="fraction" unicode="&#x2044;" horiz-adv-x="122" 
d="M296 621c1 2 34 -2 39 -4l-1 -5c-19 -21 -452 -626 -488 -668c-1 -1 -6 -3 -7 -2c-7 6 -18 21 -19 26c7 11 470 649 476 653z" />
    <glyph glyph-name="yen" unicode="&#xa5;" horiz-adv-x="508" 
d="M309 161c-2 0 -5 -3 -5 -5l-9 -60c-3 -28 -2 -49 24 -55c14 -4 27 -6 48 -10c2 -3 -6 -30 -9 -34c-40 0 -97 3 -153 3c-51 0 -85 -3 -137 -3c-3 3 1 32 5 34c25 3 40 5 54 9c25 6 32 27 37 54l12 63c0 2 -1 4 -3 4c-56 -1 -62 -1 -79 -1c1 9 8 34 12 38c13 0 10 -1 72 -1
c2 0 5 3 5 4c2 16 5 34 8 49c0 3 -2 7 -5 7c-40 0 -61 -1 -74 -1c2 10 8 34 13 38c10 0 31 -1 65 -1c2 0 5 4 4 7c-9 42 -32 122 -53 185c-16 48 -28 57 -49 63c-17 4 -19 4 -27 5c-3 7 2 29 6 34c33 0 73 -3 122 -3c63 0 103 2 120 3c3 -5 0 -31 -4 -34
c-8 -1 -20 -4 -28 -6c-14 -5 -14 -16 -12 -29c9 -45 33 -140 41 -168c1 -2 4 -1 6 0c30 48 75 129 91 163c8 18 3 27 -10 31c-13 5 -23 7 -39 9c0 7 4 31 8 34c14 0 47 -4 92 -4c46 0 74 4 92 4c3 -4 -1 -31 -5 -34c-12 -2 -23 -4 -32 -7c-29 -10 -43 -21 -74 -67
c-38 -59 -90 -142 -110 -180c-2 -2 -1 -6 2 -6c47 1 67 2 77 2c-1 -7 -8 -31 -11 -38c-16 0 -33 1 -73 1c-2 0 -4 -3 -5 -4c-3 -16 -5 -39 -8 -51c0 -2 2 -6 3 -6c25 0 66 1 77 1c0 -6 -7 -32 -10 -38c-15 0 -33 1 -72 1z" />
    <glyph glyph-name="florin" unicode="&#x192;" horiz-adv-x="508" 
d="M194 289c0 3 -1 7 -4 7c-27 0 -57 1 -70 2c0 4 17 43 20 46c14 0 34 -1 57 -1c3 0 7 2 7 5c32 160 89 222 156 267c27 19 72 33 95 33s41 -3 55 -14c2 -1 5 -12 5 -15c-3 -25 -31 -69 -36 -75c-3 -2 -13 -4 -16 -1c-21 26 -44 54 -66 54c-11 0 -19 -11 -24 -26
c-14 -40 -28 -128 -40 -221c0 -3 2 -7 4 -7c33 0 69 0 94 3c1 -4 -9 -31 -13 -35c-11 -6 -26 -11 -48 -13c-12 -2 -30 -2 -40 -2c-2 0 -7 -6 -7 -8c-11 -62 -27 -161 -44 -234c-39 -176 -179 -229 -229 -229c-40 0 -58 12 -68 25c-2 3 -3 15 -2 17c4 11 25 64 32 73
c1 2 12 3 13 2c19 -23 50 -64 75 -64c12 0 22 4 37 79c15 76 33 196 57 332z" />
    <glyph glyph-name="section" unicode="&#xa7;" horiz-adv-x="487" 
d="M306 531c-21 0 -22 -19 -22 -34c1 -14 4 -31 8 -42c11 -36 39 -90 81 -172c34 -64 43 -111 43 -146c0 -52 -16 -108 -60 -162c-56 -75 -139 -117 -188 -117c-71 0 -104 29 -122 49c-7 9 -12 20 -11 29c1 6 17 44 26 56c2 1 4 2 7 2c40 -56 103 -72 121 -72
c15 0 20 13 20 27c-1 18 -9 36 -17 49c-12 26 -37 69 -62 114c-42 79 -58 146 -58 197c0 88 45 165 95 213c38 36 104 71 149 71c57 0 90 -24 107 -41c9 -9 13 -20 11 -29c-1 -14 -14 -36 -24 -48l-7 -2c-14 14 -74 58 -97 58zM257 -71c59 23 83 92 83 161
c0 61 -25 110 -52 166c-28 56 -69 124 -68 193c0 27 7 56 21 81c-61 -11 -100 -95 -100 -162c-1 -65 25 -125 52 -180c26 -50 78 -134 80 -194c0 -22 -3 -42 -16 -65z" />
    <glyph glyph-name="currency" unicode="&#xa4;" horiz-adv-x="508" 
d="M300 469c28 0 58 -10 79 -24c1 -1 5 -1 6 0c24 25 42 43 54 50c4 2 47 5 54 5c2 -2 4 -9 3 -12c-31 -30 -57 -60 -78 -85c16 -28 21 -59 18 -99c-4 -42 -18 -78 -42 -109c-2 -3 -2 -7 -1 -10c18 -24 46 -60 65 -80c0 -3 -4 -12 -6 -14c-14 -4 -60 -12 -68 -7
c-12 11 -44 42 -54 55c-30 -21 -64 -29 -97 -29c-32 0 -68 12 -91 33c-25 -21 -62 -58 -77 -71c-2 -1 -10 0 -12 2c-3 10 -6 49 1 54c21 26 37 36 54 55c2 2 0 6 0 7c-9 22 -17 50 -13 88c4 40 16 73 38 103l-46 60c-1 3 -2 8 -1 13c0 5 21 43 35 56c1 1 12 2 14 0
c15 -22 36 -52 53 -71c2 -2 5 -2 9 0c31 22 78 30 103 30zM267 411c-61 0 -93 -52 -99 -111c-7 -88 42 -127 98 -127c46 0 88 20 96 110c6 69 -31 128 -95 128z" />
    <glyph glyph-name="quotesingle" unicode="'" horiz-adv-x="205" 
d="M121 630c10 14 80 54 94 54c4 0 9 -2 11 -6c1 -4 2 -10 1 -18c-3 -38 -37 -157 -71 -208c-16 -22 -45 -49 -56 -55c-6 0 -21 1 -23 5c20 55 43 168 44 228z" />
    <glyph glyph-name="quotedblleft" unicode="&#x201c;" horiz-adv-x="383" 
d="M391 682c5 1 28 -6 32 -10c-58 -56 -87 -108 -88 -147c0 -26 10 -49 18 -64c-5 -11 -65 -57 -83 -60c-6 0 -13 1 -16 3c-6 11 -11 31 -10 54c1 73 78 179 147 224zM227 676c6 1 28 -6 32 -11c-57 -56 -79 -99 -79 -138c-1 -26 9 -51 18 -66c-6 -11 -66 -57 -85 -60
c-6 0 -11 1 -14 3c-7 11 -11 31 -11 54c1 73 73 174 139 218z" />
    <glyph glyph-name="guillemotleft" unicode="&#xab;" horiz-adv-x="691" 
d="M194 189c50 -30 127 -96 146 -123c4 -5 0 -37 -3 -45c-1 -2 -5 -5 -7 -5c-28 28 -200 138 -260 161c0 6 10 24 13 28c107 42 265 132 308 161l4 -6c-2 -9 -11 -41 -14 -43c-27 -26 -130 -93 -185 -123c-2 -1 -3 -5 -2 -5zM434 189c50 -30 127 -96 146 -123
c3 -5 0 -37 -3 -45c-1 -2 -5 -5 -7 -5c-28 28 -200 138 -261 161c2 5 10 24 14 28c109 41 265 132 307 161c2 0 4 -4 5 -6c-2 -9 -11 -41 -14 -43c-27 -26 -130 -92 -185 -123c-3 -1 -3 -5 -2 -5z" />
    <glyph glyph-name="guilsinglleft" unicode="&#x2039;" horiz-adv-x="488" 
d="M210 186c57 -31 140 -93 161 -120c4 -5 2 -36 -1 -45c-1 -2 -7 -5 -9 -5c-31 28 -218 137 -285 158c1 8 10 29 14 32c115 40 277 125 332 160c2 -1 5 -6 6 -8c-1 -12 -13 -40 -16 -43c-29 -26 -139 -91 -200 -123c-4 -1 -3 -5 -2 -6z" />
    <glyph glyph-name="guilsinglright" unicode="&#x203a;" horiz-adv-x="488" 
d="M274 195c-57 31 -140 94 -161 120c-4 5 -2 37 1 45c1 3 7 5 9 6c31 -28 218 -137 285 -159c-1 -7 -10 -28 -14 -31c-116 -41 -277 -126 -332 -160c-2 1 -5 6 -6 8c1 12 13 40 16 42c29 26 139 91 200 123c3 2 3 6 2 6z" />
    <glyph glyph-name="endash" unicode="&#x2013;" horiz-adv-x="500" 
d="M55 229c6 1 396 3 404 1l1 -6c-2 -11 -12 -52 -17 -53c-9 -3 -390 -2 -405 -1l-2 8c2 10 16 50 19 51z" />
    <glyph glyph-name="dagger" unicode="&#x2020;" horiz-adv-x="492" 
d="M236 537c12 1 65 11 99 23l4 -6c-15 -48 -41 -169 -47 -204c0 -2 2 -6 4 -6h51c45 0 98 1 116 6c0 -4 -4 -22 -7 -28c-6 -10 -18 -15 -35 -22c-13 -5 -51 -10 -89 -11c-21 -1 -31 -1 -47 -1c-2 0 -6 -7 -7 -8l-74 -389l-7 -4c-2 0 -32 11 -30 21c4 25 47 379 47 379h-17
c-20 0 -141 -2 -148 4c2 5 1 10 4 16c8 16 22 35 27 45c15 -5 54 -9 99 -8h44c10 80 14 158 13 193z" />
    <glyph glyph-name="daggerdbl" unicode="&#x2021;" horiz-adv-x="492" 
d="M211 178c3 26 14 104 16 132c-56 -1 -164 -2 -164 -2l-3 9c12 20 25 45 32 55c22 -8 89 -12 141 -10c9 75 14 161 16 176c22 4 73 14 90 20c1 0 7 -3 8 -5c-10 -30 -30 -120 -43 -183c0 -4 1 -7 5 -7c89 0 149 2 162 6c0 -5 -2 -18 -6 -25c-18 -21 -62 -30 -105 -32
c-23 -1 -47 -2 -60 -2c-4 0 -7 -5 -8 -8c-6 -31 -17 -83 -22 -116c-1 -5 1 -8 3 -8c106 0 139 1 156 6c0 -6 -4 -20 -8 -26c-8 -11 -40 -25 -73 -29c-25 -2 -65 -4 -82 -4c-4 0 -9 -5 -9 -7c-12 -57 -42 -220 -42 -220c-6 -5 -32 -12 -40 -10c8 59 25 207 29 237
c-39 0 -165 -3 -165 -3l-3 11c9 13 29 42 37 56c18 -9 73 -11 138 -11z" />
    <glyph glyph-name="periodcentered" unicode="&#xb7;" horiz-adv-x="231" 
d="M127 267c18 0 35 -8 46 -18c12 -14 16 -34 16 -51c0 -21 -9 -45 -27 -62c-16 -14 -38 -20 -59 -20c-19 0 -36 8 -47 20c-9 12 -14 28 -14 44c0 25 8 48 29 67c17 14 37 20 56 20z" />
    <glyph glyph-name="paragraph" unicode="&#xb6;" horiz-adv-x="575" 
d="M590 574c-16 -2 -31 -3 -48 -7c-32 -8 -53 -8 -81 -193c-14 -88 -35 -234 -52 -343c-36 -213 -138 -243 -198 -243c-48 0 -82 28 -90 54c-4 15 -6 61 -2 82c3 5 11 12 15 13c29 -38 71 -68 118 -68c70 0 92 47 121 265c-23 -9 -63 -20 -92 -21c-133 16 -196 111 -197 224
c0 163 123 239 251 256c91 12 213 13 259 16c4 -4 -1 -29 -4 -35zM294 328c-2 -72 18 -142 82 -154c5 41 30 205 41 275c8 40 15 79 31 105c-95 -4 -152 -95 -154 -226z" />
    <glyph glyph-name="bullet" unicode="&#x2022;" horiz-adv-x="423" 
d="M257 320c18 -29 75 -124 89 -149c2 -5 -3 -24 -6 -29c-24 -25 -123 -89 -138 -89c-28 0 -102 92 -117 136c-2 6 -1 26 2 32c44 29 120 79 145 99c4 3 21 5 25 0z" />
    <glyph glyph-name="quotesinglbase" unicode="&#x201a;" horiz-adv-x="225" 
d="M-1 -150c-6 -1 -27 6 -32 10c68 61 91 113 91 154c0 30 -14 54 -25 70c7 12 76 62 98 65c7 0 14 -1 18 -3c8 -12 13 -36 13 -61c0 -78 -86 -189 -163 -235z" />
    <glyph glyph-name="quotedblbase" unicode="&#x201e;" horiz-adv-x="400" 
d="M6 -151c-6 -2 -27 5 -31 10c63 60 90 116 91 158c0 29 -11 54 -20 70c6 12 70 62 90 64c7 1 14 -1 17 -2c7 -12 12 -34 12 -59c0 -78 -85 -195 -159 -241zM182 -145c-5 -2 -25 5 -30 10c65 61 82 109 82 150c1 29 -11 56 -20 72c7 12 72 62 92 64c6 1 11 -1 16 -2
c7 -12 11 -34 11 -59c0 -78 -77 -189 -151 -235z" />
    <glyph glyph-name="quotedblright" unicode="&#x201d;" horiz-adv-x="383" 
d="M88 402c-6 -1 -27 7 -30 12c57 55 85 106 86 145c0 26 -11 49 -19 65c6 10 65 57 84 59c6 0 12 -1 15 -3c7 -10 11 -31 11 -54c0 -72 -79 -181 -147 -224zM251 409c-5 -2 -26 7 -30 11c58 55 78 98 78 137c1 27 -9 51 -18 67c6 10 66 57 85 59c6 0 10 -1 14 -3
c7 -10 11 -31 11 -54c0 -72 -71 -175 -140 -217z" />
    <glyph glyph-name="guillemotright" unicode="&#xbb;" horiz-adv-x="691" 
d="M488 193c-49 30 -126 96 -145 122c-4 5 0 37 3 46c1 2 5 5 7 5c28 -28 200 -138 260 -161c0 -6 -10 -24 -13 -28c-108 -42 -266 -132 -308 -161c-2 1 -4 3 -5 5c2 10 12 41 14 44c28 26 131 93 185 122c3 2 3 5 2 6zM248 193c-49 30 -126 96 -145 122c-4 5 0 37 2 46
c1 2 6 5 7 5c29 -28 201 -138 261 -161c-1 -5 -10 -24 -13 -28c-109 -42 -265 -132 -307 -161c-2 0 -5 3 -5 5c1 10 10 41 14 44c27 26 129 91 184 122c4 2 4 5 2 6z" />
    <glyph glyph-name="ellipsis" unicode="&#x2026;" horiz-adv-x="1000" 
d="M757 137c19 0 36 -8 47 -18c12 -14 15 -35 15 -51c0 -21 -8 -45 -26 -62c-16 -14 -38 -20 -60 -20c-18 0 -36 8 -46 20c-9 12 -14 28 -14 44c0 24 8 48 28 66c18 15 38 21 56 21zM482 137c18 0 35 -8 46 -18c12 -14 16 -35 16 -51c0 -21 -9 -45 -27 -62
c-16 -14 -38 -20 -59 -20c-19 0 -36 8 -46 20s-15 28 -15 44c0 24 8 48 29 66c18 15 38 21 56 21zM206 137c19 0 36 -8 47 -18c12 -14 15 -35 15 -51c0 -21 -8 -45 -26 -62c-16 -14 -38 -20 -60 -20c-18 0 -36 8 -46 20c-9 12 -14 28 -14 44c0 24 8 48 28 66
c18 15 38 21 56 21z" />
    <glyph glyph-name="perthousand" unicode="&#x2030;" horiz-adv-x="1088" 
d="M608 347c69 0 107 -50 107 -117c0 -92 -46 -151 -80 -177c-42 -32 -85 -41 -124 -41c-69 0 -103 48 -104 114c0 74 29 138 74 175c31 26 78 46 127 46zM948 347c68 0 106 -50 106 -117c0 -92 -47 -150 -81 -177c-42 -31 -84 -41 -123 -41c-69 0 -103 48 -103 114
c0 74 28 138 73 175c31 26 78 46 128 46zM278 596c71 0 106 -52 106 -115c0 -102 -53 -158 -84 -181c-42 -30 -81 -38 -119 -38c-69 0 -104 48 -104 114c0 75 29 139 75 176c31 25 78 44 126 44zM130 15c168 202 326 398 495 600c9 5 39 8 47 9c2 -1 5 -8 4 -10
c-45 -48 -439 -536 -523 -633h-9c-4 5 -15 27 -14 34zM916 310c-47 0 -69 -113 -70 -170c-1 -71 20 -89 40 -89c44 0 67 103 68 167c2 59 -10 92 -38 92zM577 310c-47 0 -69 -113 -70 -170c-1 -71 20 -89 40 -89c43 0 67 103 68 167c2 59 -10 92 -38 92zM245 559
c-50 0 -67 -120 -68 -171c-2 -69 19 -87 38 -87c44 0 68 96 69 165c2 58 -9 93 -39 93z" />
    <glyph glyph-name="questiondown" unicode="&#xbf;" horiz-adv-x="354" 
d="M143 98c0 11 -5 33 -22 52c-2 4 1 13 5 16c8 8 57 31 70 33c8 1 19 1 26 -2c31 -14 46 -46 43 -67c-1 -14 -9 -27 -16 -33c-16 -12 -87 -46 -116 -64c-17 -11 -27 -25 -27 -40c0 -44 45 -74 106 -93l26 -6c9 -3 12 -15 11 -20c-1 -13 -25 -49 -49 -65
c-6 -4 -27 -12 -37 -12c-45 0 -91 18 -120 45c-38 35 -50 76 -50 109c0 32 17 53 27 62c22 20 66 42 104 62c10 6 18 14 19 23zM189 268c-18 0 -35 6 -46 17c-12 13 -16 32 -16 48c0 22 9 44 27 61c16 15 37 20 59 20c19 0 37 -8 47 -20c9 -12 14 -26 14 -42
c0 -24 -8 -46 -29 -64c-17 -15 -37 -20 -56 -20z" />
    <glyph glyph-name="grave" unicode="`" horiz-adv-x="400" 
d="M147 609c-1 4 3 12 6 14c12 6 84 7 97 2c5 -20 25 -125 32 -167c-2 -5 -29 -11 -35 -10c-17 26 -86 134 -100 161z" />
    <glyph glyph-name="acute" unicode="&#xb4;" horiz-adv-x="400" 
d="M391 617c3 -3 4 -13 3 -17c-21 -28 -137 -128 -169 -153c-4 -1 -27 15 -28 20c30 48 78 128 90 144c13 6 93 10 104 6z" />
    <glyph glyph-name="circumflex" unicode="&#x2c6;" horiz-adv-x="400" 
d="M248 534c-26 -33 -60 -76 -70 -81c-11 -5 -35 -11 -45 -9c-2 1 -4 6 -4 9c23 27 102 124 122 157c3 4 38 13 43 13c13 -41 53 -144 64 -164c-4 -6 -39 -19 -59 -19c-9 2 -33 64 -46 94c0 2 -4 1 -5 0z" />
    <glyph glyph-name="tilde" unicode="&#x2dc;" horiz-adv-x="400" 
d="M322 541c13 0 35 2 74 37c4 4 7 -27 6 -32c-18 -28 -74 -72 -117 -72c-16 0 -30 4 -63 16c-11 4 -28 10 -42 10c-20 0 -45 -13 -68 -33c-3 -2 -6 32 -3 35c14 19 73 67 104 67c18 0 36 -6 60 -15c18 -7 37 -13 49 -13z" />
    <glyph glyph-name="macron" unicode="&#xaf;" horiz-adv-x="400" 
d="M156 557c9 -1 23 -2 49 -2c103 0 171 2 177 4c-2 -15 -26 -64 -30 -65c-16 -5 -63 -8 -190 -8c-31 0 -34 2 -34 2c3 12 26 66 28 69z" />
    <glyph glyph-name="breve" unicode="&#x2d8;" horiz-adv-x="400" 
d="M263 528c38 0 67 15 103 61c1 1 22 9 31 10c4 1 8 -3 8 -5c-27 -78 -90 -133 -175 -133c-60 0 -110 33 -106 101c7 13 35 35 48 38c5 2 15 2 19 0c6 -55 30 -72 72 -72z" />
    <glyph glyph-name="dotaccent" unicode="&#x2d9;" horiz-adv-x="400" 
d="M276 580c23 0 34 -9 38 -14c4 -9 5 -29 4 -36c-5 -27 -19 -43 -36 -56c-9 -8 -57 -11 -66 -6c-15 8 -23 23 -26 44c-1 13 4 37 13 46c14 13 46 22 73 22z" />
    <glyph glyph-name="dieresis" unicode="&#xa8;" horiz-adv-x="400" 
d="M189 582c21 0 32 -9 36 -13c3 -9 3 -27 2 -34c-4 -25 -17 -40 -33 -53c-8 -7 -53 -10 -61 -5c-15 8 -22 21 -24 40c-1 13 3 34 11 43c14 12 46 22 69 22zM356 582c21 0 31 -8 35 -13c4 -9 5 -27 4 -34c-5 -25 -16 -40 -32 -52c-9 -6 -55 -11 -63 -6c-14 8 -22 22 -24 40
c-1 12 3 34 11 43c14 12 47 22 69 22z" />
    <glyph glyph-name="ring" unicode="&#x2da;" horiz-adv-x="400" 
d="M266 619c53 0 79 -37 76 -83c-3 -54 -46 -90 -93 -90c-34 0 -80 21 -76 85c3 51 44 88 93 88zM258 574c-27 0 -46 -18 -46 -42c-2 -24 17 -40 43 -40c27 0 49 17 51 39c1 26 -11 43 -48 43z" />
    <glyph glyph-name="cedilla" unicode="&#xb8;" horiz-adv-x="399" 
d="M198 13h30l-37 -44c-1 -5 -1 -7 1 -8c13 -8 25 -18 36 -29c17 -15 23 -32 23 -49c0 -66 -78 -98 -109 -98c-25 0 -53 13 -63 29c-1 5 3 23 7 26c19 -11 39 -16 59 -16c25 0 39 10 39 28c0 16 -14 38 -69 61c0 0 1 8 2 10c0 0 68 76 81 90z" />
    <glyph glyph-name="hungarumlaut" unicode="&#x2dd;" horiz-adv-x="400" 
d="M443 624c2 -3 3 -13 2 -16c-19 -29 -106 -128 -137 -158c-4 -1 -31 5 -31 9c21 45 68 134 80 159c9 4 78 10 86 6zM300 616c1 -2 3 -12 2 -15c-19 -28 -106 -129 -134 -157c-3 -1 -30 5 -31 9l75 155c9 4 78 12 88 8z" />
    <glyph glyph-name="ogonek" unicode="&#x2db;" horiz-adv-x="400" 
d="M205 4h39c-59 -53 -79 -87 -79 -113c0 -27 15 -41 38 -41c17 0 35 7 49 14c3 -6 -2 -30 -4 -33c-29 -36 -75 -49 -101 -49c-33 0 -73 17 -73 71c0 58 82 116 131 151z" />
    <glyph glyph-name="caron" unicode="&#x2c7;" horiz-adv-x="400" 
d="M266 528c26 32 61 76 70 82c11 5 37 10 46 8c2 -1 4 -6 4 -9c-30 -33 -102 -125 -122 -157c-3 -4 -38 -14 -43 -14c-12 42 -52 145 -63 165c4 6 37 19 57 19c9 0 34 -64 46 -94c1 -1 4 -1 5 0z" />
    <glyph glyph-name="emdash" unicode="&#x2014;" horiz-adv-x="1000" 
d="M55 229c6 1 890 3 897 2l3 -9c-3 -11 -14 -50 -18 -51c-9 -2 -884 -2 -899 -1l-3 7c3 12 17 51 20 52z" />
    <glyph glyph-name="AE" unicode="&#xc6;" horiz-adv-x="859" 
d="M301 571c-1 6 3 33 6 36c33 0 124 -4 188 -4h218c55 0 97 2 128 7c3 -1 4 -8 4 -9c-13 -31 -31 -97 -42 -155c-7 -4 -33 -4 -37 -1c0 29 -2 66 -6 82c-5 20 -22 26 -32 28c-26 2 -114 3 -133 1c-5 -1 -13 -9 -14 -14c-10 -63 -21 -155 -30 -221c0 -4 3 -8 6 -8
c25 0 71 0 103 1c19 1 32 10 44 33c6 10 15 29 19 40c5 3 33 0 37 -4c-5 -18 -17 -60 -23 -97c-6 -35 -10 -73 -14 -99c-6 -4 -33 -4 -37 0c-1 26 -3 33 -4 46c-3 16 -10 26 -28 28c-17 2 -74 2 -103 2c-3 0 -7 -6 -7 -8c-9 -59 -15 -112 -19 -160c-2 -16 3 -40 15 -43
c16 -4 55 -6 107 -6c51 0 73 9 98 36c22 23 42 55 62 89c7 0 30 -12 32 -18c-8 -33 -40 -105 -63 -142c-9 -13 -26 -15 -66 -15c-67 1 -142 4 -264 4c-50 0 -125 -4 -176 -4c-2 8 1 30 5 35c30 5 62 8 75 12c18 5 29 16 34 49c8 44 16 89 25 161c0 4 -2 7 -3 7
c-32 2 -122 2 -149 1c-4 0 -13 -5 -16 -10c-33 -47 -112 -155 -119 -178c-5 -14 -6 -27 15 -33c11 -2 32 -5 52 -9c1 -3 -3 -28 -7 -34c-40 0 -89 3 -133 3c-35 0 -73 -3 -105 -3c-3 5 0 29 4 34c65 10 84 19 128 78c112 146 242 337 311 437c1 3 1 8 -3 10zM453 552
c0 2 -6 2 -8 1c-36 -55 -124 -182 -157 -233c-1 -2 -1 -7 1 -8c25 0 100 -1 123 -1c3 0 6 2 7 5c13 77 30 198 34 236z" />
    <glyph glyph-name="ordfeminine" unicode="&#xaa;" horiz-adv-x="364" 
d="M372 322c2 0 4 -1 4 -2c0 -7 -3 -28 -5 -32c-30 -43 -92 -74 -125 -74c-22 0 -27 26 -22 57l4 32c0 2 -2 3 -4 1c-32 -39 -91 -89 -127 -89s-45 42 -45 75c0 53 22 119 64 159c36 35 103 68 159 68c39 0 66 -4 90 -10c-7 -14 -12 -31 -16 -49c-13 -62 -25 -121 -26 -148
c0 -8 3 -15 8 -15c8 0 21 7 41 27zM166 296c13 0 42 16 66 63c6 11 13 29 22 64l11 45c-10 6 -25 8 -36 8c-24 0 -45 -8 -62 -51c-9 -23 -17 -52 -18 -85c0 -34 6 -44 17 -44z" />
    <glyph glyph-name="Lslash" unicode="&#x141;" horiz-adv-x="574" 
d="M87 572c-4 5 1 32 6 34c34 0 61 -2 143 -3c67 0 118 3 154 4c4 -5 0 -28 -4 -34c-24 -2 -41 -5 -52 -9c-24 -7 -28 -23 -34 -44c-4 -19 -16 -88 -29 -174l128 52c5 -2 6 -38 4 -43l-139 -54c-17 -104 -31 -200 -33 -220c-2 -19 10 -29 16 -30c21 -4 97 -6 135 -5
c41 1 78 28 146 149c6 2 31 -10 33 -16c-6 -23 -44 -124 -75 -164c-10 -13 -26 -19 -46 -19c-83 0 -218 4 -296 4c-83 0 -138 -4 -158 -4c-2 8 0 31 5 35c33 4 44 6 64 11c20 6 28 16 35 39c7 30 19 99 30 163l-71 -28c-4 2 -7 36 -5 41c20 8 50 19 84 33
c14 90 31 204 34 233c2 20 -1 34 -23 40c-11 4 -33 6 -52 9z" />
    <glyph glyph-name="Oslash" unicode="&#xd8;" horiz-adv-x="697" 
d="M557 589l1 1l31 44c2 3 25 1 32 -2c1 0 2 -6 1 -7c-2 -4 -15 -25 -36 -55c55 -46 80 -118 80 -199c0 -98 -29 -197 -87 -265c-72 -87 -165 -124 -269 -124c-50 0 -90 10 -124 25c-16 -23 -29 -40 -35 -47c-1 -2 -25 5 -31 8c-1 1 -2 5 -1 6c9 12 25 33 38 52
c-58 42 -93 112 -93 201c-1 96 33 218 128 299c64 63 143 95 231 95c60 0 103 -13 134 -32zM503 515l-1 1c-17 40 -45 65 -98 65c-126 0 -196 -232 -196 -383c0 -32 2 -61 11 -85c88 122 201 283 284 402zM517 473l-2 -2l-280 -397c18 -32 47 -50 94 -50c29 0 54 11 76 30
c73 65 117 221 117 350c0 32 -2 51 -5 69z" />
    <glyph glyph-name="OE" unicode="&#x152;" horiz-adv-x="944" 
d="M64 227c0 97 31 221 126 302c65 63 149 92 224 92c30 0 62 -2 87 -8c13 -3 27 -7 57 -10h244c38 0 90 0 129 8c1 -1 4 -7 3 -10c-12 -31 -25 -94 -37 -150c-6 -4 -33 -4 -39 -1c0 35 0 60 -6 76c-7 20 -24 24 -36 26c-34 4 -189 4 -212 2c-2 0 -4 -5 -3 -6
c36 -40 67 -107 61 -212c0 -3 2 -6 5 -6c38 0 75 -1 104 1c19 2 30 12 41 36c5 10 11 25 15 36c6 3 33 1 38 -3c-5 -24 -15 -64 -20 -96c-5 -27 -10 -78 -13 -102c-6 -5 -33 -5 -38 -1l-4 44c-4 13 -10 28 -29 30c-16 2 -89 3 -100 2c-2 0 -5 -2 -6 -6
c-15 -78 -55 -157 -126 -210c-3 -2 -2 -6 3 -7c49 -5 150 -6 198 -6c46 0 64 5 87 29c21 21 48 60 69 96c6 1 31 -11 34 -17c-6 -21 -32 -95 -55 -131c-14 -23 -23 -29 -66 -29c-71 1 -315 4 -333 4c-28 0 -85 -18 -152 -18c-97 0 -159 30 -202 85c-33 44 -47 108 -48 160z
M328 23c29 0 56 11 82 33c67 59 108 223 108 345c0 115 -34 180 -112 180c-124 0 -193 -227 -193 -380c0 -117 40 -178 115 -178z" />
    <glyph glyph-name="ordmasculine" unicode="&#xba;" horiz-adv-x="349" 
d="M255 518c65 0 96 -46 96 -104c0 -71 -33 -137 -102 -173c-24 -12 -73 -27 -103 -27c-61 0 -91 45 -91 105c0 61 24 125 76 161c35 23 81 38 124 38zM213 482c-34 0 -58 -70 -58 -144c0 -59 13 -84 38 -84c39 0 56 87 56 148c0 39 -4 80 -36 80z" />
    <glyph glyph-name="ae" unicode="&#xe6;" horiz-adv-x="610" 
d="M317 396c25 0 44 -16 53 -29c51 29 108 48 138 48c56 0 89 -47 87 -95c-2 -27 -32 -50 -77 -78c-39 -24 -98 -54 -139 -81c-2 -1 -3 -6 -3 -9c0 -42 18 -80 72 -80c27 0 73 11 128 60c1 0 4 -4 4 -7c1 -6 -3 -29 -6 -36c-38 -53 -130 -104 -205 -104
c-84 0 -105 62 -111 106c-59 -49 -141 -106 -167 -106c-46 0 -60 54 -60 100c0 79 35 166 92 221c36 38 130 90 194 90zM156 161c0 -39 12 -66 37 -66c15 0 35 12 63 32c-2 86 40 170 78 208c-12 7 -32 13 -62 13c-37 0 -70 -23 -91 -67c-15 -33 -24 -71 -25 -120zM453 370
c-26 0 -70 -54 -76 -166c0 -2 2 -6 4 -4c31 17 55 31 84 54c19 15 25 35 25 63c0 38 -20 53 -37 53z" />
    <glyph glyph-name="dotlessi" unicode="&#x131;" horiz-adv-x="268" 
d="M240 119c0 0 4 0 4 -2c1 -7 -1 -30 -4 -35c-48 -60 -120 -98 -160 -98c-35 0 -36 44 -27 92c12 67 33 156 46 222c2 8 0 16 -6 16c-9 0 -25 -8 -47 -23c-1 0 -4 1 -4 3c-1 8 2 27 6 31c57 53 129 91 162 91c22 0 22 -46 14 -84c-15 -73 -43 -191 -46 -228
c-1 -14 2 -20 9 -20c12 0 32 14 53 35z" />
    <glyph glyph-name="lslash" unicode="&#x142;" horiz-adv-x="268" 
d="M78 569c-2 5 3 32 7 34c71 41 147 67 174 67c13 0 17 -23 10 -64c-9 -51 -24 -126 -38 -203l60 26c3 -4 4 -34 2 -37c-14 -7 -41 -19 -70 -31c-21 -112 -39 -211 -42 -249c-2 -16 0 -29 12 -29c10 0 27 9 59 37c1 0 4 -4 4 -8c0 -3 -2 -25 -7 -32
c-41 -49 -117 -96 -163 -96c-26 0 -38 40 -30 100c5 44 24 135 40 222c-22 -9 -44 -18 -56 -24c-3 3 -6 37 0 39c14 6 39 17 64 27c17 91 31 165 37 211c1 11 -2 20 -10 21c-11 1 -30 -3 -53 -11z" />
    <glyph glyph-name="oslash" unicode="&#xf8;" horiz-adv-x="466" 
d="M218 34c69 0 93 145 93 201c0 26 1 31 -1 47l-145 -195c9 -37 28 -53 53 -53zM250 372c-45 0 -94 -100 -94 -206c0 -12 1 -28 2 -37l144 194c-7 33 -26 49 -52 49zM303 416c27 0 53 -6 67 -16l22 28c4 4 26 5 34 5c2 -1 4 -5 3 -8l-35 -44c32 -35 39 -70 39 -117
c0 -116 -61 -201 -140 -244c-33 -18 -88 -36 -134 -36c-24 0 -50 9 -65 19l-25 -28c-9 -6 -28 -8 -38 -8c-2 1 -4 5 -4 7l44 50c-24 30 -35 64 -34 117c1 90 39 175 105 221c43 29 102 54 161 54z" />
    <glyph glyph-name="oe" unicode="&#x153;" horiz-adv-x="645" 
d="M493 369c-26 0 -65 -46 -75 -142c-1 -2 2 -5 4 -4c26 7 59 19 77 34c15 13 26 39 26 63c0 33 -15 49 -32 49zM316 42c-1 0 -4 0 -5 -1c-38 -26 -97 -57 -154 -57c-82 0 -120 61 -120 148c0 85 33 181 106 230c48 33 109 54 152 54c53 0 84 -22 103 -58
c47 34 113 58 160 58c49 0 73 -30 73 -70c-1 -45 -36 -83 -90 -113c-38 -21 -88 -40 -119 -51c-2 0 -5 -4 -6 -6c-1 -5 -1 -11 -1 -15c0 -50 19 -92 74 -92c27 0 70 12 125 64c4 -3 5 -28 2 -37c-38 -58 -130 -112 -205 -112c-47 0 -73 17 -95 58zM162 152
c0 -82 20 -116 57 -116c60 0 87 117 87 220c0 54 -7 116 -55 116c-54 0 -89 -114 -89 -220z" />
    <glyph glyph-name="germandbls" unicode="&#xdf;" horiz-adv-x="525" 
d="M108 402c3 0 4 2 5 4c20 88 58 157 132 213c45 34 97 51 145 51c75 0 126 -50 124 -124c0 -32 -12 -50 -33 -74c-24 -26 -49 -49 -71 -71c-13 -13 -19 -25 -19 -34c0 -16 11 -30 51 -84c28 -37 46 -69 45 -110c-1 -84 -75 -148 -137 -174c-28 -12 -52 -16 -74 -16
c-16 0 -41 5 -50 19c-11 21 -6 66 -2 80c2 4 11 10 15 11c35 -38 69 -51 101 -51c26 0 47 18 47 47c1 18 -5 44 -37 90c-21 30 -46 60 -64 87c-11 17 -12 57 4 72c79 70 123 109 123 178c0 64 -28 106 -72 106c-52 0 -77 -52 -107 -230c-20 -113 -41 -289 -65 -405
c-25 -116 -162 -238 -256 -238c-46 0 -62 22 -62 45c1 25 20 63 25 70c3 4 10 10 14 11c48 -55 86 -62 100 -62c25 0 33 48 42 96c26 148 50 319 70 434c1 3 -1 7 -3 7l-64 2c0 2 -1 6 1 10c8 18 28 39 35 40h37z" />
    <glyph glyph-name="logicalnot" unicode="&#xac;" horiz-adv-x="547" 
d="M85 273c-31 0 -35 3 -35 7c2 10 13 56 17 63c11 -2 83 -2 190 -2c152 0 208 1 215 1c2 0 6 -5 6 -7c0 -21 -1 -126 -1 -189c0 -46 1 -78 2 -91c-15 -5 -56 -11 -64 -11c-2 0 -7 5 -7 8c-1 43 -1 171 -1 192c0 7 -1 29 -17 29h-305z" />
    <glyph glyph-name="mu" unicode="&#xb5;" horiz-adv-x="497" 
d="M461 80c-45 -69 -107 -97 -141 -96c-37 1 -51 31 -43 90l4 27c0 1 -3 2 -5 0c-58 -97 -111 -116 -139 -116c-12 0 -31 5 -41 20c-6 -23 -14 -58 -15 -89c-2 -57 50 -94 111 -107c1 -3 -4 -25 -8 -29c-18 -17 -68 -36 -116 -36c-28 0 -56 26 -48 138c5 58 14 126 30 221
s39 254 48 268c16 16 100 44 123 45c4 0 8 -8 8 -11c-15 -22 -58 -242 -60 -291c-1 -22 4 -38 21 -38c28 0 57 30 92 100c6 12 16 38 21 58c17 74 28 127 34 138c10 9 97 42 119 44c3 0 7 -9 7 -12c-9 -11 -16 -37 -20 -55c-16 -69 -42 -199 -44 -240c0 -15 3 -23 11 -23
c13 0 31 13 51 35c1 -1 5 -3 6 -5c0 -8 -3 -30 -6 -36z" />
    <glyph glyph-name="trademark" unicode="&#x2122;" horiz-adv-x="507" 
d="M305 556c0 5 2 10 -33 15c-1 3 0 19 2 20h94l6 -18c8 -19 19 -48 28 -63c10 17 19 36 31 63c2 4 3 8 6 18h90c2 -1 2 -17 0 -20c-29 -1 -28 -9 -28 -19v-83c0 -13 8 -15 28 -18c3 -2 2 -21 0 -22c-14 0 -53 2 -67 2c-16 0 -28 -2 -43 -2c-2 2 -2 20 0 22c20 3 23 6 23 18
l2 80c-13 -25 -39 -85 -53 -118h-19c-10 26 -30 84 -44 115c-2 -19 -4 -54 -4 -77c0 -9 2 -15 25 -18c1 -2 1 -20 0 -22c-14 0 -28 2 -42 2c-13 0 -27 -2 -41 -2c-1 1 -1 18 0 21c26 4 31 7 33 20c3 18 6 68 6 86zM190 475c0 -20 4 -22 37 -26c1 -3 0 -19 -2 -20
c-8 0 -44 2 -62 2s-57 -2 -63 -2c-1 2 -1 17 0 18c32 5 33 10 34 24c1 24 0 59 1 97h-23c-8 0 -18 -10 -28 -36c-2 -1 -17 2 -18 4l9 60c8 -3 29 -5 38 -5h105c10 0 24 1 41 4l-8 -60c-1 0 -19 -1 -20 0c-3 28 -9 33 -19 33h-23c0 -34 0 -68 1 -93z" />
    <glyph glyph-name="Eth" unicode="&#xd0;" horiz-adv-x="710" 
d="M97 572c-6 8 1 31 6 35c17 0 117 -4 137 -4c78 1 73 1 155 1c99 0 165 -24 214 -73c42 -42 69 -111 69 -190c0 -122 -51 -213 -129 -272c-93 -73 -186 -77 -298 -77c-67 0 -172 5 -253 5c-3 6 0 29 5 34c26 4 40 5 60 9c22 4 32 20 39 46l36 210c-19 -1 -57 -2 -84 -2
c2 10 10 37 14 41c11 0 38 -1 76 -1c16 94 26 162 28 188c2 25 -2 37 -25 42c-11 4 -36 6 -50 8zM356 564c-8 0 -22 -2 -29 -3c-5 -1 -11 -9 -12 -15c-6 -31 -20 -115 -35 -212c44 0 118 1 132 1c0 -7 -8 -34 -12 -40c-21 0 -64 1 -125 1c-13 -78 -29 -174 -32 -213
c-2 -14 5 -26 12 -31c16 -13 54 -18 77 -18c41 0 76 12 116 53c51 54 83 152 83 251c0 71 -19 142 -62 181c-30 28 -68 45 -113 45z" />
    <glyph glyph-name="onehalf" unicode="&#xbd;" horiz-adv-x="814" 
d="M306 250c2 -3 -2 -28 -7 -31c-39 0 -86 3 -125 3c-37 0 -78 -3 -114 -3c-2 4 1 27 5 30c18 3 27 3 39 6c21 4 27 20 31 39c5 26 11 56 19 109c9 50 15 87 16 105c1 10 -3 20 -13 21c-8 2 -28 4 -38 6c-3 4 3 27 6 29c53 4 127 20 160 32c3 1 10 -2 10 -4
c-6 -21 -11 -50 -19 -101s-22 -145 -29 -196c-3 -26 3 -35 15 -39c16 -4 30 -5 44 -6zM637 621c1 2 34 -2 39 -4l-1 -5c-19 -21 -452 -626 -488 -668c-1 -1 -6 -3 -7 -2c-7 6 -18 21 -19 26c7 11 470 649 476 653zM751 273c0 -51 -20 -85 -84 -135c-28 -23 -55 -40 -70 -50
c0 -1 -3 -3 1 -4c20 -2 68 -2 97 -1c15 0 38 17 60 52c4 2 23 -10 25 -14c-8 -20 -40 -88 -54 -107c-6 -8 -15 -16 -31 -16c-51 -2 -134 2 -193 2c-15 0 -32 -1 -46 -1c-2 4 1 24 4 28c52 33 90 60 131 100c36 37 54 69 54 109c0 31 -23 59 -60 59c-26 0 -49 -11 -81 -38
c-4 -1 -16 22 -15 25c47 60 106 92 156 92c60 0 106 -45 106 -101z" />
    <glyph glyph-name="plusminus" unicode="&#xb1;" horiz-adv-x="547" 
d="M488 9l-443 -3c-1 0 -1 8 -1 10c1 14 9 54 12 60c10 -3 56 -2 114 -2h331c1 0 2 -9 2 -9c0 -10 -9 -55 -15 -56zM504 360c-1 -5 -11 -53 -18 -54c-11 -2 -110 -1 -177 -2c-3 0 -6 -6 -6 -8c-1 -61 0 -159 -1 -167c-1 -6 -46 -18 -57 -20c-2 0 -8 2 -8 4
c-1 15 0 93 -1 191c-70 -1 -115 -1 -189 -1c-2 0 -3 7 -3 10c1 8 9 53 12 60c10 -3 58 -3 117 -3h63v62c0 54 -1 96 -2 110c10 5 58 13 64 13c3 0 5 -2 5 -35c0 -28 1 -79 0 -141c0 -3 2 -9 6 -9h191c2 -1 4 -6 4 -10z" />
    <glyph glyph-name="Thorn" unicode="&#xde;" horiz-adv-x="578" 
d="M413 324c0 64 -35 111 -100 111c-4 0 -18 -1 -26 -5c-2 -1 -9 -8 -10 -14c-2 -8 -23 -140 -37 -239c13 -3 32 -6 48 -6c84 0 125 62 125 153zM93 572c-3 6 1 31 5 34c32 0 70 -3 137 -3c61 0 92 3 142 3c2 -5 0 -28 -5 -34c-21 -4 -32 -4 -46 -9c-21 -6 -25 -16 -31 -45
l-6 -38c0 -5 4 -6 4 -6c29 1 57 2 88 2c48 0 97 -9 132 -39c24 -22 44 -63 44 -107c0 -87 -46 -139 -104 -170c-36 -21 -92 -31 -137 -31c-22 -1 -65 3 -81 8l-6 -45c-3 -28 2 -45 22 -50c17 -5 33 -7 55 -11c2 -5 -2 -29 -6 -35c-33 0 -84 4 -138 4c-68 0 -123 -4 -161 -4
c-2 8 0 32 3 35c22 3 38 5 55 10c24 7 30 30 35 55c8 32 63 372 68 412c3 30 3 49 -20 56c-12 3 -30 6 -49 8z" />
    <glyph glyph-name="onequarter" unicode="&#xbc;" horiz-adv-x="814" 
d="M759 105h-61c-1 0 -3 -2 -4 -3l-17 -108c-26 0 -88 -5 -107 -8l20 117c0 1 -2 3 -3 3h-149c0 4 6 27 9 31c53 59 189 208 216 236c14 2 60 6 73 7c-11 -62 -23 -143 -34 -219c0 0 1 -3 3 -3l67 2c-4 -15 -10 -37 -13 -55zM314 250c2 -3 -2 -28 -7 -31c-39 0 -86 3 -125 3
c-37 0 -78 -3 -114 -3c-2 4 1 27 5 30c18 3 27 3 39 6c21 4 27 20 31 39c5 26 11 56 19 109c9 50 15 87 16 105c1 10 -3 20 -13 21c-8 2 -28 4 -38 6c-3 4 3 27 6 29c53 4 127 20 160 32c3 1 10 -2 10 -4c-6 -21 -11 -50 -19 -101s-22 -145 -29 -196c-3 -26 3 -35 15 -39
c16 -4 30 -5 44 -6zM661 621c1 2 34 -2 39 -4l-1 -5c-19 -21 -452 -626 -488 -668c-1 -1 -6 -3 -7 -2c-7 6 -18 21 -19 26c7 11 470 649 476 653zM596 157c1 0 3 3 3 4l23 123h-2c-17 -16 -75 -86 -106 -124v-4z" />
    <glyph glyph-name="divide" unicode="&#xf7;" horiz-adv-x="547" 
d="M327 412c0 -27 -12 -46 -28 -64c-4 -3 -48 -12 -60 -2c-19 15 -23 37 -24 46c-1 5 6 35 9 38c11 8 41 17 58 17c18 0 33 -4 37 -9c3 -5 8 -18 8 -26zM486 208l-442 -3c-2 1 -3 7 -3 10c1 13 12 53 15 60c10 -3 56 -2 114 -2h331c3 -1 3 -9 3 -10c0 -7 -12 -54 -18 -55z
M327 106c0 -26 -3 -40 -20 -57c-4 -4 -50 -15 -63 -5c-19 15 -28 38 -29 48c-1 5 6 33 9 36c11 10 41 18 58 18c18 0 33 -4 37 -9c3 -6 8 -22 8 -31z" />
    <glyph glyph-name="brokenbar" unicode="&#xa6;" horiz-adv-x="298" 
d="M107 631h83v-348h-83v348zM107 127h83v-355h-83v355z" />
    <glyph glyph-name="degree" unicode="&#xb0;" horiz-adv-x="299" 
d="M144 604c74 0 114 -53 114 -121c0 -67 -55 -116 -117 -116c-65 0 -117 44 -117 114c0 81 57 123 120 123zM139 552c-37 0 -64 -29 -64 -64c0 -49 35 -69 68 -69c35 0 65 17 65 63c0 34 -23 70 -69 70z" />
    <glyph glyph-name="thorn" unicode="&#xfe;" horiz-adv-x="494" 
d="M173 -16c-6 0 -17 1 -23 2c-10 -60 -16 -101 -19 -134c-1 -18 1 -33 20 -38c12 -3 33 -4 59 -7c2 -4 -2 -28 -6 -33c-87 1 -185 -11 -278 -25c-4 5 -1 30 2 33c18 5 31 8 42 12c19 6 27 20 32 41c14 53 46 260 62 344c24 130 60 325 66 382c1 6 -2 16 -9 16
c-10 0 -39 -5 -59 -12c-4 4 1 32 6 36c64 35 155 69 184 69c12 -1 16 -26 9 -64l-58 -300c-1 -3 3 -2 4 -1c53 59 128 111 187 111c46 0 69 -53 69 -116c-2 -89 -43 -184 -100 -236c-66 -59 -144 -80 -190 -80zM224 33c15 0 32 10 49 30c35 42 62 132 63 207
c0 41 -11 64 -31 64c-24 0 -55 -24 -90 -73c-28 -39 -47 -125 -47 -164c0 -18 3 -30 10 -40c8 -13 26 -24 46 -24z" />
    <glyph glyph-name="threequarters" unicode="&#xbe;" horiz-adv-x="814" 
d="M756 105h-61c-1 0 -3 -2 -4 -3l-17 -108c-26 0 -88 -5 -107 -8l20 117c0 1 -2 3 -3 3h-149c0 4 6 27 9 31c53 59 189 208 216 236c14 2 60 6 73 7c-11 -62 -23 -143 -34 -219c0 0 1 -3 3 -3l67 2c-4 -15 -10 -37 -13 -55zM258 596c58 0 94 -37 94 -81
c0 -39 -28 -63 -73 -84c-2 -1 -2 -2 -1 -3c50 -17 80 -46 80 -90c0 -87 -96 -139 -187 -139c-31 0 -57 6 -73 13c-9 5 -18 12 -22 25c-6 18 -8 48 -8 62c2 5 21 12 26 12c7 -23 23 -50 41 -61c15 -9 32 -16 53 -16c38 0 63 24 63 71c0 42 -27 74 -79 74c-8 0 -6 1 -18 -1
c-1 5 15 38 19 41c65 11 85 24 86 58c-1 30 -22 53 -56 53c-24 0 -50 -11 -78 -34c-4 -1 -11 21 -10 26c37 39 89 74 143 74zM665 621c1 2 34 -2 39 -4l-1 -5c-19 -21 -452 -626 -488 -668c-1 -1 -6 -3 -7 -2c-7 6 -18 21 -19 26c7 11 470 649 476 653zM593 157c1 0 3 3 3 4
l23 123h-2c-17 -16 -75 -86 -106 -124v-4z" />
    <glyph glyph-name="registered" unicode="&#xae;" horiz-adv-x="312" 
d="M198 609c77 0 138 -58 138 -139c0 -78 -61 -139 -138 -139c-76 0 -138 58 -138 139c0 78 62 139 138 139zM198 583c-63 0 -107 -50 -107 -113c0 -61 47 -112 107 -112c69 0 108 51 108 112c0 62 -47 113 -108 113zM128 410c-1 4 -1 10 0 13c15 2 20 5 20 13v76
c0 9 -5 11 -19 12c-1 1 0 14 1 15c8 0 24 -1 35 -1h53c27 0 41 -14 41 -34c0 -17 -15 -28 -28 -31c9 -14 17 -28 27 -38c6 -7 9 -11 23 -13c1 -1 0 -12 -3 -13c-5 -1 -34 0 -44 2c-5 2 -9 3 -15 12c-8 12 -13 23 -21 35c-3 6 -5 8 -9 8v-29c0 -8 4 -10 17 -13
c2 -1 2 -11 0 -14c-6 0 -26 2 -37 2c-12 0 -35 -2 -41 -2zM189 479c4 0 14 0 21 3c4 2 9 8 9 17c0 15 -9 24 -23 24c-7 0 -7 -2 -7 -6v-38z" />
    <glyph glyph-name="minus" unicode="&#x2212;" horiz-adv-x="547" 
d="M488 208c0 0 -436 -3 -441 -3c-3 1 -5 9 -5 10c0 13 10 52 14 60c10 -3 56 -2 114 -2h331c3 0 4 -7 4 -10c0 -4 -11 -54 -17 -55z" />
    <glyph glyph-name="eth" unicode="&#xf0;" horiz-adv-x="468" 
d="M221 32c74 0 97 202 97 272c0 23 -7 42 -19 53c-12 10 -23 16 -41 16c-67 0 -95 -144 -96 -216c-1 -81 17 -125 59 -125zM37 138c1 81 34 171 101 220c42 32 104 57 148 57c11 0 19 0 27 -1c0 20 -9 60 -21 85c-21 -8 -78 -28 -112 -39c-2 1 -3 5 -3 8c1 9 8 31 13 33
c17 7 68 25 84 32c-16 30 -64 75 -140 94c-1 7 6 26 11 32c77 -1 163 -31 219 -89c1 -1 6 -3 8 -2c22 9 87 35 102 42c2 -1 4 -2 4 -4c0 -6 -2 -30 -9 -35c-9 -8 -40 -20 -72 -33c-2 -1 -4 -4 -2 -8c23 -43 46 -117 46 -178c0 -155 -47 -280 -172 -342
c-32 -17 -75 -26 -107 -26c-95 0 -125 74 -125 154z" />
    <glyph glyph-name="multiply" unicode="&#xd7;" horiz-adv-x="547" 
d="M428 445c3 6 39 11 67 13c3 -1 7 -10 5 -14c-58 -76 -129 -153 -184 -214c-2 -1 0 -7 0 -7c37 -43 142 -157 178 -187c1 -3 -1 -14 -4 -16c-9 -3 -73 1 -89 13c-19 15 -86 88 -133 139c-1 1 -5 4 -7 1c-63 -69 -124 -136 -134 -143c-13 -8 -56 -13 -72 -14
c-3 1 -6 12 -5 16c19 15 146 152 171 182c2 3 2 7 0 9c-66 71 -151 171 -165 189c0 8 30 50 35 54c2 2 12 2 15 0c6 -12 123 -151 167 -199c60 66 145 164 155 178z" />
    <glyph glyph-name="copyright" unicode="&#xa9;" horiz-adv-x="729" 
d="M379 626c186 0 315 -142 315 -320c0 -179 -141 -322 -315 -322c-176 0 -317 131 -317 322c0 178 141 320 317 320zM378 590c-152 0 -273 -126 -273 -284s124 -284 276 -284c149 0 271 129 271 284c0 158 -125 284 -274 284zM410 462c-67 0 -102 -62 -102 -149
c0 -66 21 -158 112 -158c29 0 60 20 95 71c4 0 21 -10 22 -15c-7 -27 -40 -75 -48 -80c-19 -6 -52 -12 -90 -12c-127 0 -205 68 -205 186c0 100 71 189 215 189c22 0 47 -2 71 -5c16 -2 33 -3 52 -3c-3 -25 -7 -76 -8 -105c-3 -2 -26 -4 -29 -2c-4 34 -14 54 -32 67
c-16 12 -34 16 -53 16z" />
    <glyph glyph-name="Aacute" unicode="&#xc1;" horiz-adv-x="605" 
d="M-49 31c71 10 86 16 122 77c79 131 195 357 229 431c11 20 22 47 29 66c7 0 27 -2 47 -2c21 0 38 2 45 2c2 -16 5 -39 8 -56c18 -98 53 -326 73 -415c18 -86 23 -92 98 -103c5 -3 1 -31 -5 -34c-25 0 -62 3 -145 3c-82 -1 -125 -3 -149 -3c-5 6 -4 30 2 34
c11 1 46 6 55 12c9 7 12 18 12 22c-1 32 -15 117 -21 148c0 3 -3 7 -7 7c-15 2 -51 2 -76 2c-38 0 -58 0 -71 -1c-4 0 -7 -3 -10 -8c-25 -47 -61 -119 -64 -139c-2 -14 -1 -28 23 -33c16 -4 35 -7 51 -10c4 -4 -1 -31 -7 -34c-29 0 -76 3 -129 3c-43 0 -90 -3 -114 -3
c-5 4 -1 31 4 34zM310 463l-90 -184c-1 -3 -1 -7 2 -7c9 -1 30 -1 57 -1c36 0 53 0 60 1c2 0 4 2 4 5c-5 31 -19 131 -29 186c-1 1 -3 1 -4 0zM549 735c1 -3 1 -11 -2 -15c-22 -16 -190 -88 -198 -88c-4 0 -20 26 -19 30c18 19 129 121 148 132c17 0 66 -45 71 -59z" />
    <glyph glyph-name="Acircumflex" unicode="&#xc2;" horiz-adv-x="605" 
d="M-49 31c71 10 86 16 122 77c79 131 195 357 229 431c11 20 22 47 29 66c7 0 27 -2 47 -2c21 0 38 2 45 2c2 -16 5 -39 8 -56c18 -98 53 -326 73 -415c18 -86 23 -92 98 -103c5 -3 1 -31 -5 -34c-25 0 -62 3 -145 3c-82 -1 -125 -3 -149 -3c-5 6 -4 30 2 34
c11 1 46 6 55 12c9 7 12 18 12 22c-1 32 -15 117 -21 148c0 3 -3 7 -7 7c-15 2 -51 2 -76 2c-38 0 -58 0 -71 -1c-4 0 -7 -3 -10 -8c-25 -47 -61 -119 -64 -139c-2 -14 -1 -28 23 -33c16 -4 35 -7 51 -10c4 -4 -1 -31 -7 -34c-29 0 -76 3 -129 3c-43 0 -90 -3 -114 -3
c-5 4 -1 31 4 34zM310 463l-90 -184c-1 -3 -1 -7 2 -7c9 -1 30 -1 57 -1c36 0 53 0 60 1c2 0 4 2 4 5c-5 31 -19 131 -29 186c-1 1 -3 1 -4 0zM392 763c4 2 17 6 22 6c18 -24 90 -94 116 -116c0 -7 -12 -25 -17 -25c-7 0 -93 38 -118 49c-2 1 -8 2 -13 0
c-26 -12 -132 -49 -141 -49c-6 0 -14 21 -12 27c35 19 143 89 163 108z" />
    <glyph glyph-name="Adieresis" unicode="&#xc4;" horiz-adv-x="605" 
d="M-49 31c71 10 86 16 122 77c79 131 195 357 229 431c11 20 22 47 29 66c7 0 27 -2 47 -2c21 0 38 2 45 2c2 -16 5 -39 8 -56c18 -98 53 -326 73 -415c18 -86 23 -92 98 -103c5 -3 1 -31 -5 -34c-25 0 -62 3 -145 3c-82 -1 -125 -3 -149 -3c-5 6 -4 30 2 34
c11 1 46 6 55 12c9 7 12 18 12 22c-1 32 -15 117 -21 148c0 3 -3 7 -7 7c-15 2 -51 2 -76 2c-38 0 -58 0 -71 -1c-4 0 -7 -3 -10 -8c-25 -47 -61 -119 -64 -139c-2 -14 -1 -28 23 -33c16 -4 35 -7 51 -10c4 -4 -1 -31 -7 -34c-29 0 -76 3 -129 3c-43 0 -90 -3 -114 -3
c-5 4 -1 31 4 34zM310 463l-90 -184c-1 -3 -1 -7 2 -7c9 -1 30 -1 57 -1c36 0 53 0 60 1c2 0 4 2 4 5c-5 31 -19 131 -29 186c-1 1 -3 1 -4 0zM308 750c21 0 34 -9 38 -15c5 -9 5 -27 5 -34c-3 -25 -15 -40 -31 -51c-8 -5 -52 -9 -60 -4c-15 8 -24 22 -27 41
c-1 13 1 33 9 42c14 12 43 21 66 21zM495 750c21 0 35 -8 39 -13c4 -9 5 -27 4 -34c-4 -26 -15 -41 -31 -53c-8 -5 -52 -9 -61 -4c-14 8 -24 24 -25 42c-1 17 3 33 11 41c15 13 41 21 63 21z" />
    <glyph glyph-name="Agrave" unicode="&#xc0;" horiz-adv-x="605" 
d="M-49 31c71 10 86 16 122 77c79 131 195 357 229 431c11 20 22 47 29 66c7 0 27 -2 47 -2c21 0 38 2 45 2c2 -16 5 -39 8 -56c18 -98 53 -326 73 -415c18 -86 23 -92 98 -103c5 -3 1 -31 -5 -34c-25 0 -62 3 -145 3c-82 -1 -125 -3 -149 -3c-5 6 -4 30 2 34
c11 1 46 6 55 12c9 7 12 18 12 22c-1 32 -15 117 -21 148c0 3 -3 7 -7 7c-15 2 -51 2 -76 2c-38 0 -58 0 -71 -1c-4 0 -7 -3 -10 -8c-25 -47 -61 -119 -64 -139c-2 -14 -1 -28 23 -33c16 -4 35 -7 51 -10c4 -4 -1 -31 -7 -34c-29 0 -76 3 -129 3c-43 0 -90 -3 -114 -3
c-5 4 -1 31 4 34zM310 463l-90 -184c-1 -3 -1 -7 2 -7c9 -1 30 -1 57 -1c36 0 53 0 60 1c2 0 4 2 4 5c-5 31 -19 131 -29 186c-1 1 -3 1 -4 0zM238 742c-3 3 -1 9 0 12c9 14 74 46 86 45c18 -22 79 -121 92 -148c2 -4 -21 -21 -26 -21c-7 0 -135 94 -152 112z" />
    <glyph glyph-name="Aring" unicode="&#xc5;" horiz-adv-x="605" 
d="M-49 31c71 10 86 16 122 77c79 131 195 357 229 431c11 20 22 47 29 66c7 0 27 -2 47 -2c21 0 38 2 45 2c2 -16 5 -39 8 -56c18 -98 53 -326 73 -415c18 -86 23 -92 98 -103c5 -3 1 -31 -5 -34c-25 0 -62 3 -145 3c-82 -1 -125 -3 -149 -3c-5 6 -4 30 2 34
c11 1 46 6 55 12c9 7 12 18 12 22c-1 32 -15 117 -21 148c0 3 -3 7 -7 7c-15 2 -51 2 -76 2c-38 0 -58 0 -71 -1c-4 0 -7 -3 -10 -8c-25 -47 -61 -119 -64 -139c-2 -14 -1 -28 23 -33c16 -4 35 -7 51 -10c4 -4 -1 -31 -7 -34c-29 0 -76 3 -129 3c-43 0 -90 -3 -114 -3
c-5 4 -1 31 4 34zM310 463l-90 -184c-1 -3 -1 -7 2 -7c9 -1 30 -1 57 -1c36 0 53 0 60 1c2 0 4 2 4 5c-5 31 -19 131 -29 186c-1 1 -3 1 -4 0zM397 786c52 0 82 -36 78 -80c-4 -51 -46 -84 -97 -84c-40 0 -85 25 -80 85c5 49 44 79 99 79zM387 743c-30 0 -45 -15 -47 -37
s16 -39 45 -39c26 0 47 12 49 33c2 22 -11 43 -47 43z" />
    <glyph glyph-name="Atilde" unicode="&#xc3;" horiz-adv-x="605" 
d="M-49 31c71 10 86 16 122 77c79 131 195 357 229 431c11 20 22 47 29 66c7 0 27 -2 47 -2c21 0 38 2 45 2c2 -16 5 -39 8 -56c18 -98 53 -326 73 -415c18 -86 23 -92 98 -103c5 -3 1 -31 -5 -34c-25 0 -62 3 -145 3c-82 -1 -125 -3 -149 -3c-5 6 -4 30 2 34
c11 1 46 6 55 12c9 7 12 18 12 22c-1 32 -15 117 -21 148c0 3 -3 7 -7 7c-15 2 -51 2 -76 2c-38 0 -58 0 -71 -1c-4 0 -7 -3 -10 -8c-25 -47 -61 -119 -64 -139c-2 -14 -1 -28 23 -33c16 -4 35 -7 51 -10c4 -4 -1 -31 -7 -34c-29 0 -76 3 -129 3c-43 0 -90 -3 -114 -3
c-5 4 -1 31 4 34zM310 463l-90 -184c-1 -3 -1 -7 2 -7c9 -1 30 -1 57 -1c36 0 53 0 60 1c2 0 4 2 4 5c-5 31 -19 131 -29 186c-1 1 -3 1 -4 0zM461 714c15 0 38 1 79 35c4 4 8 -25 7 -30c-19 -26 -80 -71 -125 -71c-17 0 -35 5 -66 15c-11 4 -29 10 -44 10
c-19 0 -46 -14 -72 -32c-4 -1 -11 26 -7 29c15 19 80 71 112 71c20 0 39 -7 64 -15c20 -7 40 -12 52 -12z" />
    <glyph glyph-name="Ccedilla" unicode="&#xc7;" horiz-adv-x="621" 
d="M561 446c-2 73 -12 97 -43 116c-22 14 -49 19 -87 19c-123 0 -210 -137 -211 -309c-1 -156 76 -228 185 -228c21 0 48 5 62 11c31 13 60 36 108 94c7 -3 23 -20 22 -27c-23 -45 -69 -95 -107 -114c-33 -17 -81 -23 -123 -25l-13 -16c-2 -3 -1 -8 1 -9
c14 -10 25 -19 38 -31c17 -15 24 -33 24 -52c0 -68 -83 -101 -117 -101c-26 0 -56 14 -67 30c-1 5 4 25 7 28c21 -12 42 -17 64 -17c26 0 41 10 41 29c0 17 -15 40 -74 63c0 0 1 9 2 11c0 0 37 39 58 64c-186 6 -263 124 -263 270c0 141 73 274 215 335c51 22 105 33 174 33
c37 0 73 -4 108 -10c26 -4 49 -8 64 -9c-12 -42 -25 -103 -31 -152c-7 -8 -30 -7 -37 -3z" />
    <glyph glyph-name="Eacute" unicode="&#xc9;" horiz-adv-x="577" 
d="M-8 31c30 3 50 7 65 11c18 4 27 18 35 50c18 83 62 357 69 426c3 28 0 40 -20 45c-12 4 -36 8 -54 10c-2 6 2 30 6 34c36 0 103 -4 150 -4h200c38 0 104 2 123 5c2 -1 3 -6 3 -7c-12 -31 -26 -93 -36 -151c-6 -5 -34 -5 -39 -1c-1 27 -4 60 -9 78c-6 19 -19 26 -36 28
c-27 2 -108 4 -134 1c-5 -1 -10 -8 -11 -12c-10 -50 -24 -139 -35 -208c0 -3 3 -6 7 -6c32 0 81 0 112 1c20 1 34 10 43 31c5 10 12 26 17 41c4 5 34 3 39 -1c-5 -17 -15 -69 -21 -100c-6 -35 -10 -76 -14 -104c-5 -5 -32 -3 -38 -1c1 20 -2 41 -4 52c-4 16 -13 24 -30 27
c-17 2 -84 3 -112 3c-4 0 -8 -3 -8 -7c-10 -62 -21 -139 -29 -187c-3 -21 7 -31 17 -34c23 -6 97 -5 139 -5c29 0 51 6 74 31c22 25 39 46 63 87c6 3 31 -8 34 -15c-8 -30 -36 -107 -57 -139c-8 -11 -13 -12 -39 -13c-80 0 -152 3 -307 3c-72 0 -131 -3 -166 -3
c-3 4 -1 31 3 34zM528 741c1 -3 1 -11 -2 -15c-22 -16 -190 -88 -198 -88c-4 0 -20 26 -19 30c18 19 129 121 148 132c17 0 66 -45 71 -59z" />
    <glyph glyph-name="Ecircumflex" unicode="&#xca;" horiz-adv-x="577" 
d="M-8 31c30 3 50 7 65 11c18 4 27 18 35 50c18 83 62 357 69 426c3 28 0 40 -20 45c-12 4 -36 8 -54 10c-2 6 2 30 6 34c36 0 103 -4 150 -4h200c38 0 104 2 123 5c2 -1 3 -6 3 -7c-12 -31 -26 -93 -36 -151c-6 -5 -34 -5 -39 -1c-1 27 -4 60 -9 78c-6 19 -19 26 -36 28
c-27 2 -108 4 -134 1c-5 -1 -10 -8 -11 -12c-10 -50 -24 -139 -35 -208c0 -3 3 -6 7 -6c32 0 81 0 112 1c20 1 34 10 43 31c5 10 12 26 17 41c4 5 34 3 39 -1c-5 -17 -15 -69 -21 -100c-6 -35 -10 -76 -14 -104c-5 -5 -32 -3 -38 -1c1 20 -2 41 -4 52c-4 16 -13 24 -30 27
c-17 2 -84 3 -112 3c-4 0 -8 -3 -8 -7c-10 -62 -21 -139 -29 -187c-3 -21 7 -31 17 -34c23 -6 97 -5 139 -5c29 0 51 6 74 31c22 25 39 46 63 87c6 3 31 -8 34 -15c-8 -30 -36 -107 -57 -139c-8 -11 -13 -12 -39 -13c-80 0 -152 3 -307 3c-72 0 -131 -3 -166 -3
c-3 4 -1 31 3 34zM372 780c4 2 17 6 22 6c18 -24 90 -94 116 -116c0 -7 -12 -25 -17 -25c-7 0 -93 38 -118 49c-2 1 -8 2 -13 0c-26 -12 -132 -49 -141 -49c-6 0 -14 21 -12 27c35 19 143 89 163 108z" />
    <glyph glyph-name="Edieresis" unicode="&#xcb;" horiz-adv-x="577" 
d="M-8 31c30 3 50 7 65 11c18 4 27 18 35 50c18 83 62 357 69 426c3 28 0 40 -20 45c-12 4 -36 8 -54 10c-2 6 2 30 6 34c36 0 103 -4 150 -4h200c38 0 104 2 123 5c2 -1 3 -6 3 -7c-12 -31 -26 -93 -36 -151c-6 -5 -34 -5 -39 -1c-1 27 -4 60 -9 78c-6 19 -19 26 -36 28
c-27 2 -108 4 -134 1c-5 -1 -10 -8 -11 -12c-10 -50 -24 -139 -35 -208c0 -3 3 -6 7 -6c32 0 81 0 112 1c20 1 34 10 43 31c5 10 12 26 17 41c4 5 34 3 39 -1c-5 -17 -15 -69 -21 -100c-6 -35 -10 -76 -14 -104c-5 -5 -32 -3 -38 -1c1 20 -2 41 -4 52c-4 16 -13 24 -30 27
c-17 2 -84 3 -112 3c-4 0 -8 -3 -8 -7c-10 -62 -21 -139 -29 -187c-3 -21 7 -31 17 -34c23 -6 97 -5 139 -5c29 0 51 6 74 31c22 25 39 46 63 87c6 3 31 -8 34 -15c-8 -30 -36 -107 -57 -139c-8 -11 -13 -12 -39 -13c-80 0 -152 3 -307 3c-72 0 -131 -3 -166 -3
c-3 4 -1 31 3 34zM284 765c21 0 34 -9 38 -15c5 -9 5 -27 5 -34c-3 -25 -15 -40 -31 -51c-8 -5 -52 -9 -60 -4c-15 8 -24 22 -27 41c-1 13 1 33 9 42c14 12 43 21 66 21zM471 765c21 0 35 -8 39 -13c4 -9 5 -27 4 -34c-4 -26 -15 -41 -31 -53c-8 -5 -52 -9 -61 -4
c-14 8 -24 24 -25 42c-1 17 3 33 11 41c15 13 41 21 63 21z" />
    <glyph glyph-name="Egrave" unicode="&#xc8;" horiz-adv-x="577" 
d="M-8 31c30 3 50 7 65 11c18 4 27 18 35 50c18 83 62 357 69 426c3 28 0 40 -20 45c-12 4 -36 8 -54 10c-2 6 2 30 6 34c36 0 103 -4 150 -4h200c38 0 104 2 123 5c2 -1 3 -6 3 -7c-12 -31 -26 -93 -36 -151c-6 -5 -34 -5 -39 -1c-1 27 -4 60 -9 78c-6 19 -19 26 -36 28
c-27 2 -108 4 -134 1c-5 -1 -10 -8 -11 -12c-10 -50 -24 -139 -35 -208c0 -3 3 -6 7 -6c32 0 81 0 112 1c20 1 34 10 43 31c5 10 12 26 17 41c4 5 34 3 39 -1c-5 -17 -15 -69 -21 -100c-6 -35 -10 -76 -14 -104c-5 -5 -32 -3 -38 -1c1 20 -2 41 -4 52c-4 16 -13 24 -30 27
c-17 2 -84 3 -112 3c-4 0 -8 -3 -8 -7c-10 -62 -21 -139 -29 -187c-3 -21 7 -31 17 -34c23 -6 97 -5 139 -5c29 0 51 6 74 31c22 25 39 46 63 87c6 3 31 -8 34 -15c-8 -30 -36 -107 -57 -139c-8 -11 -13 -12 -39 -13c-80 0 -152 3 -307 3c-72 0 -131 -3 -166 -3
c-3 4 -1 31 3 34zM235 749c-3 3 -1 9 0 12c9 14 74 46 86 45c18 -22 79 -121 92 -148c2 -4 -21 -21 -26 -21c-7 0 -135 94 -152 112z" />
    <glyph glyph-name="Iacute" unicode="&#xcd;" horiz-adv-x="357" 
d="M88 573c-3 7 0 30 5 33c28 0 65 -3 143 -3c79 0 116 3 152 3c5 -4 2 -30 -4 -34c-21 -3 -34 -4 -49 -8c-22 -5 -29 -20 -35 -49c-6 -30 -19 -106 -32 -192c-19 -121 -31 -195 -35 -234c-1 -18 -5 -41 23 -48c11 -4 28 -6 51 -10c3 -5 -1 -31 -6 -34c-53 1 -97 3 -149 3
c-52 -1 -118 -3 -156 -3c-3 6 -1 30 3 34c20 2 39 5 51 8c21 5 35 13 43 58c7 33 27 146 39 227c17 106 24 156 28 200c2 21 -3 33 -20 38c-15 5 -26 7 -52 11zM420 743c1 -3 1 -11 -2 -15c-22 -16 -190 -88 -198 -88c-4 0 -20 26 -19 30c18 19 129 121 148 132
c17 0 66 -45 71 -59z" />
    <glyph glyph-name="Icircumflex" unicode="&#xce;" horiz-adv-x="357" 
d="M88 573c-3 7 0 30 5 33c28 0 65 -3 143 -3c79 0 116 3 152 3c5 -4 2 -30 -4 -34c-21 -3 -34 -4 -49 -8c-22 -5 -29 -20 -35 -49c-6 -30 -19 -106 -32 -192c-19 -121 -31 -195 -35 -234c-1 -18 -5 -41 23 -48c11 -4 28 -6 51 -10c3 -5 -1 -31 -6 -34c-53 1 -97 3 -149 3
c-52 -1 -118 -3 -156 -3c-3 6 -1 30 3 34c20 2 39 5 51 8c21 5 35 13 43 58c7 33 27 146 39 227c17 106 24 156 28 200c2 21 -3 33 -20 38c-15 5 -26 7 -52 11zM264 780c4 2 17 6 22 6c18 -24 90 -94 116 -116c0 -7 -12 -25 -17 -25c-7 0 -93 38 -118 49c-2 1 -8 2 -13 0
c-26 -12 -132 -49 -141 -49c-6 0 -14 21 -12 27c35 19 143 89 163 108z" />
    <glyph glyph-name="Idieresis" unicode="&#xcf;" horiz-adv-x="357" 
d="M88 573c-3 7 0 30 5 33c28 0 65 -3 143 -3c79 0 116 3 152 3c5 -4 2 -30 -4 -34c-21 -3 -34 -4 -49 -8c-22 -5 -29 -20 -35 -49c-6 -30 -19 -106 -32 -192c-19 -121 -31 -195 -35 -234c-1 -18 -5 -41 23 -48c11 -4 28 -6 51 -10c3 -5 -1 -31 -6 -34c-53 1 -97 3 -149 3
c-52 -1 -118 -3 -156 -3c-3 6 -1 30 3 34c20 2 39 5 51 8c21 5 35 13 43 58c7 33 27 146 39 227c17 106 24 156 28 200c2 21 -3 33 -20 38c-15 5 -26 7 -52 11zM185 766c21 0 34 -9 38 -15c5 -9 5 -27 5 -34c-3 -25 -15 -40 -31 -51c-8 -5 -52 -9 -60 -4
c-15 8 -24 22 -27 41c-1 13 1 33 9 42c14 12 43 21 66 21zM372 766c21 0 35 -8 39 -13c4 -9 5 -27 4 -34c-4 -26 -15 -41 -31 -53c-8 -5 -52 -9 -61 -4c-14 8 -24 24 -25 42c-1 17 3 33 11 41c15 13 41 21 63 21z" />
    <glyph glyph-name="Igrave" unicode="&#xcc;" horiz-adv-x="357" 
d="M88 573c-3 7 0 30 5 33c28 0 65 -3 143 -3c79 0 116 3 152 3c5 -4 2 -30 -4 -34c-21 -3 -34 -4 -49 -8c-22 -5 -29 -20 -35 -49c-6 -30 -19 -106 -32 -192c-19 -121 -31 -195 -35 -234c-1 -18 -5 -41 23 -48c11 -4 28 -6 51 -10c3 -5 -1 -31 -6 -34c-53 1 -97 3 -149 3
c-52 -1 -118 -3 -156 -3c-3 6 -1 30 3 34c20 2 39 5 51 8c21 5 35 13 43 58c7 33 27 146 39 227c17 106 24 156 28 200c2 21 -3 33 -20 38c-15 5 -26 7 -52 11zM122 752c-3 3 -1 9 0 12c9 14 74 46 86 45c18 -22 79 -121 92 -148c2 -4 -21 -21 -26 -21
c-7 0 -135 94 -152 112z" />
    <glyph glyph-name="Ntilde" unicode="&#xd1;" horiz-adv-x="695" 
d="M69 572c-2 8 2 29 6 34c51 0 119 -3 170 -3c19 0 36 0 46 1c6 -13 14 -30 29 -57c47 -83 179 -309 225 -385c1 0 4 0 4 1c21 116 45 286 50 343c3 28 -6 48 -37 55c-18 4 -41 7 -64 11c-4 6 0 31 5 34c26 0 57 -3 134 -3c70 0 94 3 117 3c3 -4 0 -31 -6 -34
c-15 -3 -27 -5 -40 -9c-29 -8 -43 -19 -52 -61c-19 -88 -43 -237 -65 -371c-7 -43 -14 -101 -19 -138c-9 0 -22 2 -52 2c-26 0 -39 -1 -48 -2c-53 98 -219 400 -265 474c-2 0 -2 -1 -3 -2c-16 -85 -52 -315 -57 -358c-4 -42 4 -57 35 -65c15 -4 32 -8 58 -11
c4 -3 -1 -28 -5 -35c-32 0 -74 4 -125 4c-41 0 -88 -4 -128 -4c-2 8 0 29 4 34c24 4 34 6 53 10c29 7 40 25 49 60c13 54 51 251 74 395c3 20 -6 56 -31 65c-16 6 -38 9 -62 12zM507 726c15 0 38 1 79 35c4 4 8 -25 7 -30c-19 -26 -80 -71 -125 -71c-17 0 -35 5 -66 15
c-11 4 -29 10 -44 10c-19 0 -46 -14 -72 -32c-4 -1 -11 26 -7 29c15 19 80 71 112 71c20 0 39 -7 64 -15c20 -7 40 -12 52 -12z" />
    <glyph glyph-name="Oacute" unicode="&#xd3;" horiz-adv-x="699" 
d="M311 -18c-166 0 -247 97 -247 248c0 94 33 213 127 294c63 63 143 97 231 97c160 0 242 -102 244 -250c2 -96 -27 -194 -85 -262c-70 -88 -172 -127 -270 -127zM330 24c29 0 56 11 78 30c73 65 110 211 110 344c0 116 -38 183 -115 183c-127 0 -190 -219 -190 -375
c0 -120 44 -182 117 -182zM581 759c1 -3 1 -11 -2 -15c-22 -16 -190 -88 -198 -88c-4 0 -20 26 -19 30c18 19 129 121 148 132c17 0 66 -45 71 -59z" />
    <glyph glyph-name="Ocircumflex" unicode="&#xd4;" horiz-adv-x="699" 
d="M311 -18c-166 0 -247 97 -247 248c0 94 33 213 127 294c63 63 143 97 231 97c160 0 242 -102 244 -250c2 -96 -27 -194 -85 -262c-70 -88 -172 -127 -270 -127zM330 24c29 0 56 11 78 30c73 65 110 211 110 344c0 116 -38 183 -115 183c-127 0 -190 -219 -190 -375
c0 -120 44 -182 117 -182zM437 789c4 2 17 6 22 6c18 -24 90 -94 116 -116c0 -7 -12 -25 -17 -25c-7 0 -93 38 -118 49c-2 1 -8 2 -13 0c-26 -12 -132 -49 -141 -49c-6 0 -14 21 -12 27c35 19 143 89 163 108z" />
    <glyph glyph-name="Odieresis" unicode="&#xd6;" horiz-adv-x="699" 
d="M311 -18c-166 0 -247 97 -247 248c0 94 33 213 127 294c63 63 143 97 231 97c160 0 242 -102 244 -250c2 -96 -27 -194 -85 -262c-70 -88 -172 -127 -270 -127zM330 24c29 0 56 11 78 30c73 65 110 211 110 344c0 116 -38 183 -115 183c-127 0 -190 -219 -190 -375
c0 -120 44 -182 117 -182zM355 771c21 0 34 -9 38 -15c5 -9 5 -27 5 -34c-3 -25 -15 -40 -31 -51c-8 -5 -52 -9 -60 -4c-15 8 -24 22 -27 41c-1 13 1 33 9 42c14 12 43 21 66 21zM542 771c21 0 35 -8 39 -13c4 -9 5 -27 4 -34c-4 -26 -15 -41 -31 -53c-8 -5 -52 -9 -61 -4
c-14 8 -24 24 -25 42c-1 17 3 33 11 41c15 13 41 21 63 21z" />
    <glyph glyph-name="Ograve" unicode="&#xd2;" horiz-adv-x="699" 
d="M311 -18c-166 0 -247 97 -247 248c0 94 33 213 127 294c63 63 143 97 231 97c160 0 242 -102 244 -250c2 -96 -27 -194 -85 -262c-70 -88 -172 -127 -270 -127zM330 24c29 0 56 11 78 30c73 65 110 211 110 344c0 116 -38 183 -115 183c-127 0 -190 -219 -190 -375
c0 -120 44 -182 117 -182zM301 764c-3 3 -1 9 0 12c9 14 74 46 86 45c18 -22 79 -121 92 -148c2 -4 -21 -21 -26 -21c-7 0 -135 94 -152 112z" />
    <glyph glyph-name="Otilde" unicode="&#xd5;" horiz-adv-x="699" 
d="M311 -18c-166 0 -247 97 -247 248c0 94 33 213 127 294c63 63 143 97 231 97c160 0 242 -102 244 -250c2 -96 -27 -194 -85 -262c-70 -88 -172 -127 -270 -127zM330 24c29 0 56 11 78 30c73 65 110 211 110 344c0 116 -38 183 -115 183c-127 0 -190 -219 -190 -375
c0 -120 44 -182 117 -182zM504 736c15 0 38 1 79 35c4 4 8 -25 7 -30c-19 -26 -80 -71 -125 -71c-17 0 -35 5 -66 15c-11 4 -29 10 -44 10c-19 0 -46 -14 -72 -32c-4 -1 -11 26 -7 29c15 19 80 71 112 71c20 0 39 -7 64 -15c20 -7 40 -12 52 -12z" />
    <glyph glyph-name="Scaron" unicode="&#x160;" horiz-adv-x="497" 
d="M80 191c13 -73 28 -113 59 -139c22 -19 63 -30 94 -30c52 0 91 29 91 82c1 40 -15 72 -93 135c-70 55 -135 103 -135 190c0 119 91 192 221 192c52 0 88 -8 106 -11c29 -6 49 -8 59 -10c-12 -38 -22 -86 -34 -149c-5 -5 -33 -7 -36 -1c-2 58 -7 90 -28 108
c-16 17 -49 25 -74 25c-56 0 -91 -41 -91 -91c0 -37 16 -61 44 -88c37 -33 72 -53 110 -83c54 -43 83 -86 83 -144c0 -111 -94 -195 -248 -195c-64 0 -137 25 -162 43c-9 15 -8 120 -2 159c4 7 30 9 36 7zM334 658c-6 -3 -16 -5 -22 -6c-15 19 -95 96 -118 117
c2 5 15 24 19 24c7 0 103 -47 117 -55c2 -1 9 -2 12 0c26 12 137 55 143 55s13 -22 11 -27c-32 -20 -140 -90 -162 -108z" />
    <glyph glyph-name="Uacute" unicode="&#xda;" horiz-adv-x="681" 
d="M70 572c-3 7 0 30 5 34c26 0 79 -3 148 -3c83 0 126 3 150 3c2 -6 -1 -28 -5 -34c-18 -3 -31 -4 -42 -7c-25 -5 -37 -21 -43 -52c-13 -72 -28 -168 -37 -221c-4 -27 -11 -88 -11 -124c0 -66 40 -116 133 -116c71 0 136 21 165 158c17 75 42 220 49 287c4 39 -4 57 -34 64
c-14 4 -34 7 -56 11c-5 4 -1 31 4 34c23 0 65 -3 125 -3c58 0 97 3 123 3c4 -4 1 -30 -4 -34c-15 -3 -33 -6 -47 -10c-32 -9 -41 -27 -50 -70c-12 -59 -35 -182 -48 -248c-41 -223 -152 -262 -276 -262c-95 0 -157 27 -191 69c-24 29 -33 68 -32 110c1 56 32 230 49 351
c3 27 -3 45 -25 51c-12 3 -31 7 -50 9zM603 745c1 -3 1 -11 -2 -15c-22 -16 -190 -88 -198 -88c-4 0 -20 26 -19 30c18 19 129 121 148 132c17 0 66 -45 71 -59z" />
    <glyph glyph-name="Ucircumflex" unicode="&#xdb;" horiz-adv-x="681" 
d="M70 572c-3 7 0 30 5 34c26 0 79 -3 148 -3c83 0 126 3 150 3c2 -6 -1 -28 -5 -34c-18 -3 -31 -4 -42 -7c-25 -5 -37 -21 -43 -52c-13 -72 -28 -168 -37 -221c-4 -27 -11 -88 -11 -124c0 -66 40 -116 133 -116c71 0 136 21 165 158c17 75 42 220 49 287c4 39 -4 57 -34 64
c-14 4 -34 7 -56 11c-5 4 -1 31 4 34c23 0 65 -3 125 -3c58 0 97 3 123 3c4 -4 1 -30 -4 -34c-15 -3 -33 -6 -47 -10c-32 -9 -41 -27 -50 -70c-12 -59 -35 -182 -48 -248c-41 -223 -152 -262 -276 -262c-95 0 -157 27 -191 69c-24 29 -33 68 -32 110c1 56 32 230 49 351
c3 27 -3 45 -25 51c-12 3 -31 7 -50 9zM446 785c4 2 17 6 22 6c18 -24 90 -94 116 -116c0 -7 -12 -25 -17 -25c-7 0 -93 38 -118 49c-2 1 -8 2 -13 0c-26 -12 -132 -49 -141 -49c-6 0 -14 21 -12 27c35 19 143 89 163 108z" />
    <glyph glyph-name="Udieresis" unicode="&#xdc;" horiz-adv-x="681" 
d="M70 572c-3 7 0 30 5 34c26 0 79 -3 148 -3c83 0 126 3 150 3c2 -6 -1 -28 -5 -34c-18 -3 -31 -4 -42 -7c-25 -5 -37 -21 -43 -52c-13 -72 -28 -168 -37 -221c-4 -27 -11 -88 -11 -124c0 -66 40 -116 133 -116c71 0 136 21 165 158c17 75 42 220 49 287c4 39 -4 57 -34 64
c-14 4 -34 7 -56 11c-5 4 -1 31 4 34c23 0 65 -3 125 -3c58 0 97 3 123 3c4 -4 1 -30 -4 -34c-15 -3 -33 -6 -47 -10c-32 -9 -41 -27 -50 -70c-12 -59 -35 -182 -48 -248c-41 -223 -152 -262 -276 -262c-95 0 -157 27 -191 69c-24 29 -33 68 -32 110c1 56 32 230 49 351
c3 27 -3 45 -25 51c-12 3 -31 7 -50 9zM364 767c21 0 34 -9 38 -15c5 -9 5 -27 5 -34c-3 -25 -15 -40 -31 -51c-8 -5 -52 -9 -60 -4c-15 8 -24 22 -27 41c-1 13 1 33 9 42c14 12 43 21 66 21zM551 767c21 0 35 -8 39 -13c4 -9 5 -27 4 -34c-4 -26 -15 -41 -31 -53
c-8 -5 -52 -9 -61 -4c-14 8 -24 24 -25 42c-1 17 3 33 11 41c15 13 41 21 63 21z" />
    <glyph glyph-name="Ugrave" unicode="&#xd9;" horiz-adv-x="681" 
d="M70 572c-3 7 0 30 5 34c26 0 79 -3 148 -3c83 0 126 3 150 3c2 -6 -1 -28 -5 -34c-18 -3 -31 -4 -42 -7c-25 -5 -37 -21 -43 -52c-13 -72 -28 -168 -37 -221c-4 -27 -11 -88 -11 -124c0 -66 40 -116 133 -116c71 0 136 21 165 158c17 75 42 220 49 287c4 39 -4 57 -34 64
c-14 4 -34 7 -56 11c-5 4 -1 31 4 34c23 0 65 -3 125 -3c58 0 97 3 123 3c4 -4 1 -30 -4 -34c-15 -3 -33 -6 -47 -10c-32 -9 -41 -27 -50 -70c-12 -59 -35 -182 -48 -248c-41 -223 -152 -262 -276 -262c-95 0 -157 27 -191 69c-24 29 -33 68 -32 110c1 56 32 230 49 351
c3 27 -3 45 -25 51c-12 3 -31 7 -50 9zM297 752c-3 3 -1 9 0 12c9 14 74 46 86 45c18 -22 79 -121 92 -148c2 -4 -21 -21 -26 -21c-7 0 -135 94 -152 112z" />
    <glyph glyph-name="Yacute" unicode="&#xdd;" horiz-adv-x="551" 
d="M88 31c27 3 44 6 58 10c27 7 35 27 40 55c10 46 21 108 26 143c2 16 1 29 -4 48c-11 45 -45 144 -67 204c-23 61 -35 66 -59 73c-14 4 -32 6 -47 8c-5 5 0 32 5 34c35 0 85 -3 137 -3c66 0 129 2 147 3c5 -4 2 -30 -3 -34c-10 -1 -29 -5 -35 -7c-15 -4 -18 -13 -14 -27
c11 -51 52 -176 66 -209c0 -2 3 -1 5 1c32 44 112 158 133 192c8 15 11 33 -6 39c-15 5 -34 8 -52 10c-4 7 -1 32 6 35c25 0 77 -3 114 -3c43 0 86 3 115 3c4 -5 2 -30 -5 -35c-18 -3 -42 -7 -50 -9c-30 -9 -43 -20 -80 -66c-51 -62 -123 -165 -150 -206
c-8 -13 -14 -23 -18 -43c-8 -45 -17 -101 -23 -148c-4 -29 -5 -51 22 -58c15 -4 33 -6 60 -10c1 -5 -1 -29 -8 -34c-38 0 -94 3 -164 3c-68 0 -99 -3 -154 -3c-4 7 1 30 5 34zM547 746c1 -3 1 -11 -2 -15c-22 -16 -190 -88 -198 -88c-4 0 -20 26 -19 30
c18 19 129 121 148 132c17 0 66 -45 71 -59z" />
    <glyph glyph-name="Ydieresis" unicode="&#x178;" horiz-adv-x="551" 
d="M88 31c27 3 44 6 58 10c27 7 35 27 40 55c10 46 21 108 26 143c2 16 1 29 -4 48c-11 45 -45 144 -67 204c-23 61 -35 66 -59 73c-14 4 -32 6 -47 8c-5 5 0 32 5 34c35 0 85 -3 137 -3c66 0 129 2 147 3c5 -4 2 -30 -3 -34c-10 -1 -29 -5 -35 -7c-15 -4 -18 -13 -14 -27
c11 -51 52 -176 66 -209c0 -2 3 -1 5 1c32 44 112 158 133 192c8 15 11 33 -6 39c-15 5 -34 8 -52 10c-4 7 -1 32 6 35c25 0 77 -3 114 -3c43 0 86 3 115 3c4 -5 2 -30 -5 -35c-18 -3 -42 -7 -50 -9c-30 -9 -43 -20 -80 -66c-51 -62 -123 -165 -150 -206
c-8 -13 -14 -23 -18 -43c-8 -45 -17 -101 -23 -148c-4 -29 -5 -51 22 -58c15 -4 33 -6 60 -10c1 -5 -1 -29 -8 -34c-38 0 -94 3 -164 3c-68 0 -99 -3 -154 -3c-4 7 1 30 5 34zM301 766c21 0 34 -9 38 -15c5 -9 5 -27 5 -34c-3 -25 -15 -40 -31 -51c-8 -5 -52 -9 -60 -4
c-15 8 -24 22 -27 41c-1 13 1 33 9 42c14 12 43 21 66 21zM488 766c21 0 35 -8 39 -13c4 -9 5 -27 4 -34c-4 -26 -15 -41 -31 -53c-8 -5 -52 -9 -61 -4c-14 8 -24 24 -25 42c-1 17 3 33 11 41c15 13 41 21 63 21z" />
    <glyph glyph-name="Zcaron" unicode="&#x17d;" horiz-adv-x="589" 
d="M102 420c-4 -3 -33 8 -34 14c24 64 43 127 57 183c29 -11 71 -14 99 -14h227c56 0 97 1 135 3c2 -2 1 -19 -1 -24c-42 -63 -297 -412 -382 -528c-2 -2 -1 -7 1 -7c20 -2 134 -4 189 -4c20 1 36 6 54 22c24 21 68 70 100 125c5 2 29 -9 31 -17c-9 -30 -45 -123 -75 -163
c-7 -9 -20 -13 -75 -13l-322 3c-29 -1 -71 -1 -92 -3c-3 2 -5 19 -4 23c74 84 354 467 398 535c2 3 0 4 -3 4c-53 0 -122 0 -147 -1c-47 -1 -67 -6 -96 -42c-19 -24 -39 -59 -60 -96zM368 651c-6 -3 -16 -5 -22 -6c-15 19 -95 96 -118 117c2 5 15 24 19 24
c7 0 103 -47 117 -55c2 -1 9 -2 12 0c26 12 137 55 143 55s13 -22 11 -27c-32 -20 -140 -90 -162 -108z" />
    <glyph glyph-name="aacute" unicode="&#xe1;" horiz-adv-x="490" 
d="M463 123c1 0 5 -3 5 -5c0 -9 -4 -30 -7 -37c-43 -58 -119 -96 -156 -96c-32 0 -38 30 -30 78l8 51c1 3 -3 4 -5 1c-50 -65 -119 -130 -179 -130c-46 0 -63 60 -63 105c0 79 30 173 90 233c41 42 124 93 215 93c50 0 88 -5 122 -13c-10 -22 -19 -45 -24 -70
c-15 -62 -37 -184 -39 -222c0 -17 3 -24 11 -24c9 0 24 7 52 36zM192 87c23 0 65 39 96 102c9 17 17 48 28 96l17 66c-13 9 -42 13 -58 13c-38 0 -65 -14 -90 -75c-13 -33 -22 -86 -22 -135c0 -50 12 -67 29 -67zM469 619c3 -3 4 -13 3 -17c-21 -28 -137 -128 -169 -153
c-4 -1 -27 15 -28 20c30 48 78 128 90 144c13 6 93 10 104 6z" />
    <glyph glyph-name="acircumflex" unicode="&#xe2;" horiz-adv-x="490" 
d="M463 123c1 0 5 -3 5 -5c0 -9 -4 -30 -7 -37c-43 -58 -119 -96 -156 -96c-32 0 -38 30 -30 78l8 51c1 3 -3 4 -5 1c-50 -65 -119 -130 -179 -130c-46 0 -63 60 -63 105c0 79 30 173 90 233c41 42 124 93 215 93c50 0 88 -5 122 -13c-10 -22 -19 -45 -24 -70
c-15 -62 -37 -184 -39 -222c0 -17 3 -24 11 -24c9 0 24 7 52 36zM192 87c23 0 65 39 96 102c9 17 17 48 28 96l17 66c-13 9 -42 13 -58 13c-38 0 -65 -14 -90 -75c-13 -33 -22 -86 -22 -135c0 -50 12 -67 29 -67zM322 542c-26 -33 -60 -76 -70 -81c-11 -5 -35 -11 -45 -9
c-2 1 -4 6 -4 9c23 27 102 124 122 157c3 4 38 13 43 13c13 -41 53 -144 64 -164c-4 -6 -39 -19 -59 -19c-9 2 -33 64 -46 94c0 2 -4 1 -5 0z" />
    <glyph glyph-name="adieresis" unicode="&#xe4;" horiz-adv-x="490" 
d="M463 123c1 0 5 -3 5 -5c0 -9 -4 -30 -7 -37c-43 -58 -119 -96 -156 -96c-32 0 -38 30 -30 78l8 51c1 3 -3 4 -5 1c-50 -65 -119 -130 -179 -130c-46 0 -63 60 -63 105c0 79 30 173 90 233c41 42 124 93 215 93c50 0 88 -5 122 -13c-10 -22 -19 -45 -24 -70
c-15 -62 -37 -184 -39 -222c0 -17 3 -24 11 -24c9 0 24 7 52 36zM192 87c23 0 65 39 96 102c9 17 17 48 28 96l17 66c-13 9 -42 13 -58 13c-38 0 -65 -14 -90 -75c-13 -33 -22 -86 -22 -135c0 -50 12 -67 29 -67zM258 582c21 0 32 -9 36 -13c3 -9 3 -27 2 -34
c-4 -25 -17 -40 -33 -53c-8 -7 -53 -10 -61 -5c-15 8 -22 21 -24 40c-1 13 3 34 11 43c14 12 46 22 69 22zM425 582c21 0 31 -8 35 -13c4 -9 5 -27 4 -34c-5 -25 -16 -40 -32 -52c-9 -6 -55 -11 -63 -6c-14 8 -22 22 -24 40c-1 12 3 34 11 43c14 12 47 22 69 22z" />
    <glyph glyph-name="agrave" unicode="&#xe0;" horiz-adv-x="490" 
d="M463 123c1 0 5 -3 5 -5c0 -9 -4 -30 -7 -37c-43 -58 -119 -96 -156 -96c-32 0 -38 30 -30 78l8 51c1 3 -3 4 -5 1c-50 -65 -119 -130 -179 -130c-46 0 -63 60 -63 105c0 79 30 173 90 233c41 42 124 93 215 93c50 0 88 -5 122 -13c-10 -22 -19 -45 -24 -70
c-15 -62 -37 -184 -39 -222c0 -17 3 -24 11 -24c9 0 24 7 52 36zM192 87c23 0 65 39 96 102c9 17 17 48 28 96l17 66c-13 9 -42 13 -58 13c-38 0 -65 -14 -90 -75c-13 -33 -22 -86 -22 -135c0 -50 12 -67 29 -67zM218 609c-1 4 3 12 6 14c12 6 84 7 97 2
c5 -20 25 -125 32 -167c-2 -5 -29 -11 -35 -10c-17 26 -86 134 -100 161z" />
    <glyph glyph-name="aring" unicode="&#xe5;" horiz-adv-x="490" 
d="M463 123c1 0 5 -3 5 -5c0 -9 -4 -30 -7 -37c-43 -58 -119 -96 -156 -96c-32 0 -38 30 -30 78l8 51c1 3 -3 4 -5 1c-50 -65 -119 -130 -179 -130c-46 0 -63 60 -63 105c0 79 30 173 90 233c41 42 124 93 215 93c50 0 88 -5 122 -13c-10 -22 -19 -45 -24 -70
c-15 -62 -37 -184 -39 -222c0 -17 3 -24 11 -24c9 0 24 7 52 36zM192 87c23 0 65 39 96 102c9 17 17 48 28 96l17 66c-13 9 -42 13 -58 13c-38 0 -65 -14 -90 -75c-13 -33 -22 -86 -22 -135c0 -50 12 -67 29 -67zM341 623c53 0 79 -37 76 -83c-3 -54 -46 -90 -93 -90
c-34 0 -80 21 -76 85c3 51 44 88 93 88zM333 578c-27 0 -46 -18 -46 -42c-2 -24 17 -40 43 -40c27 0 49 17 51 39c1 26 -11 43 -48 43z" />
    <glyph glyph-name="atilde" unicode="&#xe3;" horiz-adv-x="490" 
d="M463 123c1 0 5 -3 5 -5c0 -9 -4 -30 -7 -37c-43 -58 -119 -96 -156 -96c-32 0 -38 30 -30 78l8 51c1 3 -3 4 -5 1c-50 -65 -119 -130 -179 -130c-46 0 -63 60 -63 105c0 79 30 173 90 233c41 42 124 93 215 93c50 0 88 -5 122 -13c-10 -22 -19 -45 -24 -70
c-15 -62 -37 -184 -39 -222c0 -17 3 -24 11 -24c9 0 24 7 52 36zM192 87c23 0 65 39 96 102c9 17 17 48 28 96l17 66c-13 9 -42 13 -58 13c-38 0 -65 -14 -90 -75c-13 -33 -22 -86 -22 -135c0 -50 12 -67 29 -67zM385 545c13 0 35 2 74 37c4 4 7 -27 6 -32
c-18 -28 -74 -72 -117 -72c-16 0 -30 4 -63 16c-11 4 -28 10 -42 10c-20 0 -45 -13 -68 -33c-3 -2 -6 32 -3 35c14 19 73 67 104 67c18 0 36 -6 60 -15c18 -7 37 -13 49 -13z" />
    <glyph glyph-name="ccedilla" unicode="&#xe7;" horiz-adv-x="377" 
d="M230 364c-34 0 -66 -70 -66 -188c0 -67 24 -109 71 -109c28 0 66 12 114 64c1 0 5 -4 5 -7c0 -8 -3 -30 -7 -35c-33 -44 -76 -74 -118 -90l-31 -33c-2 -5 -1 -8 1 -9c12 -9 21 -14 32 -25c16 -15 22 -32 22 -49c0 -66 -75 -98 -107 -98c-29 0 -54 13 -64 30
c-1 4 4 25 7 28c20 -11 38 -19 59 -19c25 0 38 10 38 28c0 16 -14 38 -69 61c0 0 2 8 3 10l64 64c-12 -2 -24 -3 -34 -3c-43 0 -75 19 -91 49c-16 26 -21 62 -21 93c0 84 36 178 103 228c52 40 115 61 158 61c35 0 55 -8 67 -17c10 -7 12 -19 10 -27c-4 -17 -33 -63 -51 -72
c-4 -2 -12 0 -14 2c-25 32 -52 63 -81 63z" />
    <glyph glyph-name="eacute" unicode="&#xe9;" horiz-adv-x="383" 
d="M232 370c-27 0 -62 -42 -73 -143c0 -3 2 -6 4 -5c27 7 59 19 77 35c15 12 25 35 25 64c0 32 -16 49 -33 49zM296 416c49 0 74 -32 74 -72c0 -44 -32 -79 -89 -111c-38 -22 -86 -40 -117 -51c-3 -1 -6 -4 -6 -6c-1 -6 -1 -8 -1 -11c0 -50 16 -96 71 -96c33 0 70 8 125 61
c1 0 4 -3 4 -5c0 -7 -1 -28 -6 -36c-39 -57 -129 -105 -202 -105c-94 0 -112 79 -112 144c0 98 43 181 86 219c34 31 121 69 173 69zM398 615c3 -3 4 -13 3 -17c-21 -28 -137 -128 -169 -153c-4 -1 -27 15 -28 20c30 48 78 128 90 144c13 6 93 10 104 6z" />
    <glyph glyph-name="ecircumflex" unicode="&#xea;" horiz-adv-x="383" 
d="M232 370c-27 0 -62 -42 -73 -143c0 -3 2 -6 4 -5c27 7 59 19 77 35c15 12 25 35 25 64c0 32 -16 49 -33 49zM296 416c49 0 74 -32 74 -72c0 -44 -32 -79 -89 -111c-38 -22 -86 -40 -117 -51c-3 -1 -6 -4 -6 -6c-1 -6 -1 -8 -1 -11c0 -50 16 -96 71 -96c33 0 70 8 125 61
c1 0 4 -3 4 -5c0 -7 -1 -28 -6 -36c-39 -57 -129 -105 -202 -105c-94 0 -112 79 -112 144c0 98 43 181 86 219c34 31 121 69 173 69zM260 534c-26 -33 -60 -76 -70 -81c-11 -5 -35 -11 -45 -9c-2 1 -4 6 -4 9c23 27 102 124 122 157c3 4 38 13 43 13c13 -41 53 -144 64 -164
c-4 -6 -39 -19 -59 -19c-9 2 -33 64 -46 94c0 2 -4 1 -5 0z" />
    <glyph glyph-name="edieresis" unicode="&#xeb;" horiz-adv-x="383" 
d="M232 370c-27 0 -62 -42 -73 -143c0 -3 2 -6 4 -5c27 7 59 19 77 35c15 12 25 35 25 64c0 32 -16 49 -33 49zM296 416c49 0 74 -32 74 -72c0 -44 -32 -79 -89 -111c-38 -22 -86 -40 -117 -51c-3 -1 -6 -4 -6 -6c-1 -6 -1 -8 -1 -11c0 -50 16 -96 71 -96c33 0 70 8 125 61
c1 0 4 -3 4 -5c0 -7 -1 -28 -6 -36c-39 -57 -129 -105 -202 -105c-94 0 -112 79 -112 144c0 98 43 181 86 219c34 31 121 69 173 69zM196 582c21 0 32 -9 36 -13c3 -9 3 -27 2 -34c-4 -25 -17 -40 -33 -53c-8 -7 -53 -10 -61 -5c-15 8 -22 21 -24 40c-1 13 3 34 11 43
c14 12 46 22 69 22zM363 582c21 0 31 -8 35 -13c4 -9 5 -27 4 -34c-5 -25 -16 -40 -32 -52c-9 -6 -55 -11 -63 -6c-14 8 -22 22 -24 40c-1 12 3 34 11 43c14 12 47 22 69 22z" />
    <glyph glyph-name="egrave" unicode="&#xe8;" horiz-adv-x="383" 
d="M232 370c-27 0 -62 -42 -73 -143c0 -3 2 -6 4 -5c27 7 59 19 77 35c15 12 25 35 25 64c0 32 -16 49 -33 49zM296 416c49 0 74 -32 74 -72c0 -44 -32 -79 -89 -111c-38 -22 -86 -40 -117 -51c-3 -1 -6 -4 -6 -6c-1 -6 -1 -8 -1 -11c0 -50 16 -96 71 -96c33 0 70 8 125 61
c1 0 4 -3 4 -5c0 -7 -1 -28 -6 -36c-39 -57 -129 -105 -202 -105c-94 0 -112 79 -112 144c0 98 43 181 86 219c34 31 121 69 173 69zM159 609c-1 4 3 12 6 14c12 6 84 7 97 2c5 -20 25 -125 32 -167c-2 -5 -29 -11 -35 -10c-17 26 -86 134 -100 161z" />
    <glyph glyph-name="iacute" unicode="&#xed;" horiz-adv-x="268" 
d="M240 119c0 0 4 0 4 -2c1 -7 -1 -30 -4 -35c-48 -60 -120 -98 -160 -98c-35 0 -36 44 -27 92c12 67 33 156 46 222c2 8 0 16 -6 16c-9 0 -25 -8 -47 -23c-1 0 -4 1 -4 3c-1 8 2 27 6 31c57 53 129 91 162 91c22 0 22 -46 14 -84c-15 -73 -43 -191 -46 -228
c-1 -14 2 -20 9 -20c12 0 32 14 53 35zM329 617c3 -3 4 -13 3 -17c-21 -28 -137 -128 -169 -153c-4 -1 -27 15 -28 20c30 48 78 128 90 144c13 6 93 10 104 6z" />
    <glyph glyph-name="icircumflex" unicode="&#xee;" horiz-adv-x="268" 
d="M240 119c0 0 4 0 4 -2c1 -7 -1 -30 -4 -35c-48 -60 -120 -98 -160 -98c-35 0 -36 44 -27 92c12 67 33 156 46 222c2 8 0 16 -6 16c-9 0 -25 -8 -47 -23c-1 0 -4 1 -4 3c-1 8 2 27 6 31c57 53 129 91 162 91c22 0 22 -46 14 -84c-15 -73 -43 -191 -46 -228
c-1 -14 2 -20 9 -20c12 0 32 14 53 35zM182 534c-26 -33 -60 -76 -70 -81c-11 -5 -35 -11 -45 -9c-2 1 -4 6 -4 9c23 27 102 124 122 157c3 4 38 13 43 13c13 -41 53 -144 64 -164c-4 -6 -39 -19 -59 -19c-9 2 -33 64 -46 94c0 2 -4 1 -5 0z" />
    <glyph glyph-name="idieresis" unicode="&#xef;" horiz-adv-x="268" 
d="M240 119c0 0 4 0 4 -2c1 -7 -1 -30 -4 -35c-48 -60 -120 -98 -160 -98c-35 0 -36 44 -27 92c12 67 33 156 46 222c2 8 0 16 -6 16c-9 0 -25 -8 -47 -23c-1 0 -4 1 -4 3c-1 8 2 27 6 31c57 53 129 91 162 91c22 0 22 -46 14 -84c-15 -73 -43 -191 -46 -228
c-1 -14 2 -20 9 -20c12 0 32 14 53 35zM123 582c21 0 32 -9 36 -13c3 -9 3 -27 2 -34c-4 -25 -17 -40 -33 -53c-8 -7 -53 -10 -61 -5c-15 8 -22 21 -24 40c-1 13 3 34 11 43c14 12 46 22 69 22zM290 582c21 0 31 -8 35 -13c4 -9 5 -27 4 -34c-5 -25 -16 -40 -32 -52
c-9 -6 -55 -11 -63 -6c-14 8 -22 22 -24 40c-1 12 3 34 11 43c14 12 47 22 69 22z" />
    <glyph glyph-name="igrave" unicode="&#xec;" horiz-adv-x="268" 
d="M240 119c0 0 4 0 4 -2c1 -7 -1 -30 -4 -35c-48 -60 -120 -98 -160 -98c-35 0 -36 44 -27 92c12 67 33 156 46 222c2 8 0 16 -6 16c-9 0 -25 -8 -47 -23c-1 0 -4 1 -4 3c-1 8 2 27 6 31c57 53 129 91 162 91c22 0 22 -46 14 -84c-15 -73 -43 -191 -46 -228
c-1 -14 2 -20 9 -20c12 0 32 14 53 35zM77 609c-1 4 3 12 6 14c12 6 84 7 97 2c5 -20 25 -125 32 -167c-2 -5 -29 -11 -35 -10c-17 26 -86 134 -100 161z" />
    <glyph glyph-name="ntilde" unicode="&#xf1;" horiz-adv-x="503" 
d="M39 282c-2 0 -5 1 -5 3c-1 7 2 31 5 34c55 59 127 97 157 97c21 0 32 -28 20 -92c-3 -17 -5 -32 -8 -44c1 -1 2 -1 4 -1c32 42 87 96 143 122c21 10 37 15 57 15c50 0 46 -68 31 -140c-12 -63 -29 -138 -32 -172c-1 -11 2 -19 8 -19c7 0 22 4 56 36c1 0 3 -1 4 -3
c0 -9 -4 -35 -6 -40c-53 -64 -130 -94 -162 -94c-33 0 -36 43 -25 101c12 59 26 112 42 192c5 30 6 50 -10 50c-21 0 -62 -36 -99 -96c-12 -19 -30 -64 -45 -126c-9 -41 -9 -58 -6 -77c-21 -14 -101 -44 -114 -44c-7 0 -13 10 -11 23c6 49 49 238 56 288c1 8 1 18 -8 18
c-12 0 -34 -14 -52 -31zM373 546c13 0 35 2 74 37c4 4 7 -27 6 -32c-18 -28 -74 -72 -117 -72c-16 0 -30 4 -63 16c-11 4 -28 10 -42 10c-20 0 -45 -13 -68 -33c-3 -2 -6 32 -3 35c14 19 73 67 104 67c18 0 36 -6 60 -15c18 -7 37 -13 49 -13z" />
    <glyph glyph-name="oacute" unicode="&#xf3;" horiz-adv-x="466" 
d="M305 416c89 0 128 -64 128 -144c0 -108 -45 -201 -139 -252c-34 -17 -93 -36 -136 -36c-82 0 -121 59 -121 148c0 85 33 181 106 230c48 33 111 54 162 54zM162 152c0 -82 20 -118 57 -118c60 0 87 124 87 220c0 55 -8 117 -56 117c-53 1 -88 -113 -88 -219zM411 617
c3 -3 4 -13 3 -17c-21 -28 -137 -128 -169 -153c-4 -1 -27 15 -28 20c30 48 78 128 90 144c13 6 93 10 104 6z" />
    <glyph glyph-name="ocircumflex" unicode="&#xf4;" horiz-adv-x="466" 
d="M305 416c89 0 128 -64 128 -144c0 -108 -45 -201 -139 -252c-34 -17 -93 -36 -136 -36c-82 0 -121 59 -121 148c0 85 33 181 106 230c48 33 111 54 162 54zM162 152c0 -82 20 -118 57 -118c60 0 87 124 87 220c0 55 -8 117 -56 117c-53 1 -88 -113 -88 -219zM282 536
c-26 -33 -60 -76 -70 -81c-11 -5 -35 -11 -45 -9c-2 1 -4 6 -4 9c23 27 102 124 122 157c3 4 38 13 43 13c13 -41 53 -144 64 -164c-4 -6 -39 -19 -59 -19c-9 2 -33 64 -46 94c0 2 -4 1 -5 0z" />
    <glyph glyph-name="odieresis" unicode="&#xf6;" horiz-adv-x="466" 
d="M305 416c89 0 128 -64 128 -144c0 -108 -45 -201 -139 -252c-34 -17 -93 -36 -136 -36c-82 0 -121 59 -121 148c0 85 33 181 106 230c48 33 111 54 162 54zM162 152c0 -82 20 -118 57 -118c60 0 87 124 87 220c0 55 -8 117 -56 117c-53 1 -88 -113 -88 -219zM220 582
c21 0 32 -9 36 -13c3 -9 3 -27 2 -34c-4 -25 -17 -40 -33 -53c-8 -7 -53 -10 -61 -5c-15 8 -22 21 -24 40c-1 13 3 34 11 43c14 12 46 22 69 22zM387 582c21 0 31 -8 35 -13c4 -9 5 -27 4 -34c-5 -25 -16 -40 -32 -52c-9 -6 -55 -11 -63 -6c-14 8 -22 22 -24 40
c-1 12 3 34 11 43c14 12 47 22 69 22z" />
    <glyph glyph-name="ograve" unicode="&#xf2;" horiz-adv-x="466" 
d="M305 416c89 0 128 -64 128 -144c0 -108 -45 -201 -139 -252c-34 -17 -93 -36 -136 -36c-82 0 -121 59 -121 148c0 85 33 181 106 230c48 33 111 54 162 54zM162 152c0 -82 20 -118 57 -118c60 0 87 124 87 220c0 55 -8 117 -56 117c-53 1 -88 -113 -88 -219zM180 609
c-1 4 3 12 6 14c12 6 84 7 97 2c5 -20 25 -125 32 -167c-2 -5 -29 -11 -35 -10c-17 26 -86 134 -100 161z" />
    <glyph glyph-name="otilde" unicode="&#xf5;" horiz-adv-x="466" 
d="M305 416c89 0 128 -64 128 -144c0 -108 -45 -201 -139 -252c-34 -17 -93 -36 -136 -36c-82 0 -121 59 -121 148c0 85 33 181 106 230c48 33 111 54 162 54zM162 152c0 -82 20 -118 57 -118c60 0 87 124 87 220c0 55 -8 117 -56 117c-53 1 -88 -113 -88 -219zM351 543
c13 0 35 2 74 37c4 4 7 -27 6 -32c-18 -28 -74 -72 -117 -72c-16 0 -30 4 -63 16c-11 4 -28 10 -42 10c-20 0 -45 -13 -68 -33c-3 -2 -6 32 -3 35c14 19 73 67 104 67c18 0 36 -6 60 -15c18 -7 37 -13 49 -13z" />
    <glyph glyph-name="scaron" unicode="&#x161;" horiz-adv-x="340" 
d="M243 417c34 0 64 -10 75 -25c2 -3 3 -14 1 -19c-6 -17 -27 -51 -41 -64c-5 -5 -15 -6 -16 -5c-25 33 -62 57 -86 57c-25 0 -35 -16 -35 -32c0 -23 16 -39 92 -88c52 -35 73 -62 73 -100c0 -39 -22 -82 -78 -117c-47 -30 -88 -39 -128 -39c-32 0 -61 8 -80 23
c-9 8 -17 22 -17 31c0 16 17 65 33 89c3 3 19 8 20 4c20 -65 73 -94 111 -94c25 0 39 14 39 31c0 24 -13 38 -79 84c-53 38 -73 67 -73 103c0 27 8 64 50 102c37 34 93 59 139 59zM239 528c26 32 61 76 70 82c11 5 37 10 46 8c2 -1 4 -6 4 -9c-30 -33 -102 -125 -122 -157
c-3 -4 -38 -14 -43 -14c-12 42 -52 145 -63 165c4 6 37 19 57 19c9 0 34 -64 46 -94c1 -1 4 -1 5 0z" />
    <glyph glyph-name="uacute" unicode="&#xfa;" horiz-adv-x="503" 
d="M98 292c3 13 2 20 -4 20c-9 0 -32 -10 -52 -26c-1 -1 -4 2 -4 3c-1 8 4 30 7 36c55 55 131 91 161 91c18 0 30 -17 15 -99c-17 -88 -34 -153 -40 -202c-1 -18 2 -31 14 -31c26 0 68 42 98 95c7 11 20 53 25 73c18 82 23 106 31 119c9 10 96 43 118 45c3 -1 7 -7 7 -12
c-6 -10 -12 -29 -18 -54c-16 -70 -40 -194 -43 -238c-1 -14 2 -25 10 -25c14 0 33 16 54 36c1 0 3 -3 4 -6c1 -8 -4 -31 -8 -38c-46 -59 -121 -95 -156 -95c-34 0 -38 37 -31 80c2 16 4 27 8 51c-1 1 -4 1 -5 0c-20 -27 -46 -54 -80 -83c-36 -31 -74 -48 -108 -48
s-59 27 -42 121zM456 617c3 -3 4 -13 3 -17c-21 -28 -137 -128 -169 -153c-4 -1 -27 15 -28 20c30 48 78 128 90 144c13 6 93 10 104 6z" />
    <glyph glyph-name="ucircumflex" unicode="&#xfb;" horiz-adv-x="503" 
d="M98 292c3 13 2 20 -4 20c-9 0 -32 -10 -52 -26c-1 -1 -4 2 -4 3c-1 8 4 30 7 36c55 55 131 91 161 91c18 0 30 -17 15 -99c-17 -88 -34 -153 -40 -202c-1 -18 2 -31 14 -31c26 0 68 42 98 95c7 11 20 53 25 73c18 82 23 106 31 119c9 10 96 43 118 45c3 -1 7 -7 7 -12
c-6 -10 -12 -29 -18 -54c-16 -70 -40 -194 -43 -238c-1 -14 2 -25 10 -25c14 0 33 16 54 36c1 0 3 -3 4 -6c1 -8 -4 -31 -8 -38c-46 -59 -121 -95 -156 -95c-34 0 -38 37 -31 80c2 16 4 27 8 51c-1 1 -4 1 -5 0c-20 -27 -46 -54 -80 -83c-36 -31 -74 -48 -108 -48
s-59 27 -42 121zM311 541c-26 -33 -60 -76 -70 -81c-11 -5 -35 -11 -45 -9c-2 1 -4 6 -4 9c23 27 102 124 122 157c3 4 38 13 43 13c13 -41 53 -144 64 -164c-4 -6 -39 -19 -59 -19c-9 2 -33 64 -46 94c0 2 -4 1 -5 0z" />
    <glyph glyph-name="udieresis" unicode="&#xfc;" horiz-adv-x="503" 
d="M98 292c3 13 2 20 -4 20c-9 0 -32 -10 -52 -26c-1 -1 -4 2 -4 3c-1 8 4 30 7 36c55 55 131 91 161 91c18 0 30 -17 15 -99c-17 -88 -34 -153 -40 -202c-1 -18 2 -31 14 -31c26 0 68 42 98 95c7 11 20 53 25 73c18 82 23 106 31 119c9 10 96 43 118 45c3 -1 7 -7 7 -12
c-6 -10 -12 -29 -18 -54c-16 -70 -40 -194 -43 -238c-1 -14 2 -25 10 -25c14 0 33 16 54 36c1 0 3 -3 4 -6c1 -8 -4 -31 -8 -38c-46 -59 -121 -95 -156 -95c-34 0 -38 37 -31 80c2 16 4 27 8 51c-1 1 -4 1 -5 0c-20 -27 -46 -54 -80 -83c-36 -31 -74 -48 -108 -48
s-59 27 -42 121zM245 582c21 0 32 -9 36 -13c3 -9 3 -27 2 -34c-4 -25 -17 -40 -33 -53c-8 -7 -53 -10 -61 -5c-15 8 -22 21 -24 40c-1 13 3 34 11 43c14 12 46 22 69 22zM412 582c21 0 31 -8 35 -13c4 -9 5 -27 4 -34c-5 -25 -16 -40 -32 -52c-9 -6 -55 -11 -63 -6
c-14 8 -22 22 -24 40c-1 12 3 34 11 43c14 12 47 22 69 22z" />
    <glyph glyph-name="ugrave" unicode="&#xf9;" horiz-adv-x="503" 
d="M98 292c3 13 2 20 -4 20c-9 0 -32 -10 -52 -26c-1 -1 -4 2 -4 3c-1 8 4 30 7 36c55 55 131 91 161 91c18 0 30 -17 15 -99c-17 -88 -34 -153 -40 -202c-1 -18 2 -31 14 -31c26 0 68 42 98 95c7 11 20 53 25 73c18 82 23 106 31 119c9 10 96 43 118 45c3 -1 7 -7 7 -12
c-6 -10 -12 -29 -18 -54c-16 -70 -40 -194 -43 -238c-1 -14 2 -25 10 -25c14 0 33 16 54 36c1 0 3 -3 4 -6c1 -8 -4 -31 -8 -38c-46 -59 -121 -95 -156 -95c-34 0 -38 37 -31 80c2 16 4 27 8 51c-1 1 -4 1 -5 0c-20 -27 -46 -54 -80 -83c-36 -31 -74 -48 -108 -48
s-59 27 -42 121zM195 609c-1 4 3 12 6 14c12 6 84 7 97 2c5 -20 25 -125 32 -167c-2 -5 -29 -11 -35 -10c-17 26 -86 134 -100 161z" />
    <glyph glyph-name="yacute" unicode="&#xfd;" horiz-adv-x="424" 
d="M168 416c26 0 43 -41 54 -96c15 -74 26 -176 29 -229c1 -2 2 -3 4 0c54 91 65 146 66 179c0 31 -7 58 -21 88c-1 3 3 11 11 18c25 19 72 43 83 43c12 0 19 -31 19 -49c-1 -34 -10 -82 -36 -138c-81 -170 -200 -332 -273 -403c-66 -65 -105 -80 -133 -80
c-15 0 -23 5 -23 15c0 15 47 101 62 116c3 3 10 7 15 6c21 -9 38 -13 50 -13c18 0 38 17 66 60c6 9 8 28 8 32c3 67 -23 214 -41 289c-8 33 -17 51 -28 51c-14 0 -35 -16 -59 -42c-1 -2 -6 1 -7 6c-1 10 2 30 6 37c34 47 100 110 148 110zM416 616c3 -3 4 -13 3 -17
c-21 -28 -137 -128 -169 -153c-4 -1 -27 15 -28 20c30 48 78 128 90 144c13 6 93 10 104 6z" />
    <glyph glyph-name="ydieresis" unicode="&#xff;" horiz-adv-x="424" 
d="M168 416c26 0 43 -41 54 -96c15 -74 26 -176 29 -229c1 -2 2 -3 4 0c54 91 65 146 66 179c0 31 -7 58 -21 88c-1 3 3 11 11 18c25 19 72 43 83 43c12 0 19 -31 19 -49c-1 -34 -10 -82 -36 -138c-81 -170 -200 -332 -273 -403c-66 -65 -105 -80 -133 -80
c-15 0 -23 5 -23 15c0 15 47 101 62 116c3 3 10 7 15 6c21 -9 38 -13 50 -13c18 0 38 17 66 60c6 9 8 28 8 32c3 67 -23 214 -41 289c-8 33 -17 51 -28 51c-14 0 -35 -16 -59 -42c-1 -2 -6 1 -7 6c-1 10 2 30 6 37c34 47 100 110 148 110zM203 583c21 0 32 -9 36 -13
c3 -9 3 -27 2 -34c-4 -25 -17 -40 -33 -53c-8 -7 -53 -10 -61 -5c-15 8 -22 21 -24 40c-1 13 3 34 11 43c14 12 46 22 69 22zM370 583c21 0 31 -8 35 -13c4 -9 5 -27 4 -34c-5 -25 -16 -40 -32 -52c-9 -6 -55 -11 -63 -6c-14 8 -22 22 -24 40c-1 12 3 34 11 43
c14 12 47 22 69 22z" />
    <glyph glyph-name="zcaron" unicode="&#x17e;" horiz-adv-x="448" 
d="M345 380c26 0 60 31 83 54c2 2 7 0 8 -3c3 -9 3 -30 2 -34c-8 -16 -79 -82 -115 -115l-165 -158c-2 -2 -3 -7 -1 -7c7 -1 35 -5 80 -21c45 -17 71 -23 89 -23c38 0 65 20 105 86c1 1 10 0 11 -3c3 -7 2 -36 -1 -41c-28 -54 -106 -145 -187 -145c-33 0 -65 17 -104 35
c-36 15 -54 22 -72 22c-26 0 -53 -33 -60 -40c-2 -2 -7 -2 -10 1c-7 7 -13 29 -10 32c19 27 69 74 93 95c18 17 174 163 181 172c3 2 2 5 0 5c-12 -3 -48 0 -75 4c-18 3 -52 8 -65 8c-25 0 -50 -15 -76 -56c-1 -2 -6 -2 -8 -1c-8 4 -17 21 -15 26c8 18 56 100 79 126
c6 7 23 17 36 17c17 0 56 -8 88 -16c43 -11 83 -20 109 -20zM286 528c26 32 61 76 70 82c11 5 37 10 46 8c2 -1 4 -6 4 -9c-30 -33 -102 -125 -122 -157c-3 -4 -38 -14 -43 -14c-12 42 -52 145 -63 165c4 6 37 19 57 19c9 0 34 -64 46 -94c1 -1 4 -1 5 0z" />
    <glyph glyph-name="twodotenleader" unicode="&#x2025;" horiz-adv-x="500" 
d="M129 137c18 0 35 -8 46 -18c12 -14 16 -35 16 -51c0 -21 -9 -45 -27 -62c-16 -14 -38 -20 -59 -20c-19 0 -36 8 -47 20c-9 12 -14 28 -14 44c0 24 8 48 29 66c17 15 37 21 56 21zM379 137c18 0 35 -8 46 -18c12 -14 16 -35 16 -51c0 -21 -9 -45 -27 -62
c-16 -14 -38 -20 -59 -20c-19 0 -36 8 -46 20s-15 28 -15 44c0 24 8 48 29 66c18 15 38 21 56 21z" />
    <glyph glyph-name="onedotenleader" unicode="&#x2024;" horiz-adv-x="500" 
d="M252 137c18 0 35 -8 46 -18c12 -14 16 -35 16 -51c0 -21 -9 -45 -27 -62c-16 -14 -38 -20 -59 -20c-19 0 -36 8 -46 20s-15 28 -15 44c0 24 8 48 29 66c18 15 38 21 56 21z" />
    <glyph glyph-name="u2014.db" horiz-adv-x="750" 
d="M55 229c6 1 646 3 654 1l1 -8c-2 -11 -12 -50 -17 -51c-9 -3 -640 -2 -655 -1l-3 9c4 12 17 49 20 50z" />
    <glyph glyph-name="u2014.d" horiz-adv-x="1000" 
d="M55 229c6 1 896 3 904 1l-1 -7c-2 -11 -10 -51 -15 -52c-9 -3 -890 -2 -905 -1v7c3 12 14 51 17 52z" />
    <glyph glyph-name="colonmonetary" unicode="&#x20a1;" horiz-adv-x="508" 
d="M329 544c-74 -30 -132 -189 -133 -337c0 -62 11 -101 29 -125l106 460c0 1 0 3 -2 2zM363 549l-113 -489c13 -9 30 -13 43 -15l115 501c0 2 -1 5 -3 5c-11 2 -26 3 -38 1c-2 0 -4 -2 -4 -3zM263 -84l21 82c0 2 -2 4 -3 4c-17 0 -31 1 -43 3c-1 0 -3 -1 -3 -3l-21 -81
c-3 -2 -25 -7 -31 -5l24 91c0 1 -1 4 -2 4c-76 19 -141 83 -141 206c0 174 100 342 276 364l15 68c2 2 30 8 34 7l-18 -73c13 2 33 1 45 0l16 66c1 3 31 9 34 7l-20 -76c23 -2 60 -13 76 -15c-5 -25 -17 -77 -21 -114c-4 -5 -27 -6 -30 -2c-2 62 -10 78 -31 91
c-1 1 -3 -1 -3 -2l-114 -494c5 0 14 1 19 3c23 6 49 19 97 83c4 1 20 -13 21 -18c-18 -44 -58 -88 -70 -94c-21 -10 -53 -16 -74 -17c-1 0 -3 -2 -3 -4l-18 -76c-4 -3 -28 -8 -32 -5z" />
    <glyph glyph-name="R_p" horiz-adv-x="979" 
d="M552 -7h-2c-53 0 -128 3 -151 16c-22 13 -36 35 -41 45c-28 47 -56 112 -81 169c-5 11 -17 20 -25 21c-4 1 -6 1 -10 1c-2 0 -6 -5 -6 -7c-10 -57 -17 -102 -24 -154c-4 -26 3 -39 22 -44c15 -5 26 -6 48 -10c3 -4 -3 -29 -7 -34c-42 0 -98 4 -142 4
c-28 0 -138 -4 -138 -4c-2 7 1 30 5 35c13 2 32 5 44 8c20 4 30 15 36 43c22 97 56 316 65 383c3 19 -2 33 -17 38c-11 4 -35 7 -55 10c-2 4 5 34 7 36c28 0 103 -3 134 -3c78 0 124 1 154 1c110 0 151 -55 151 -124c0 -76 -54 -127 -123 -150c-2 -1 -2 -5 -2 -7
c15 -40 72 -154 107 -198c15 -17 28 -28 58 -36c14 82 31 176 37 245c1 8 -2 11 -7 11c-6 0 -30 -16 -48 -30c-4 3 -9 29 -6 33c52 46 144 109 176 116c5 1 15 -7 14 -13c-1 -20 -10 -77 -20 -126l4 -2c42 47 111 107 164 107c34 0 67 -39 66 -112c-1 -85 -36 -155 -86 -199
c-40 -35 -123 -75 -170 -75c-11 0 -13 0 -20 3c-6 -35 -15 -96 -17 -126c-1 -16 2 -29 19 -33c10 -3 29 -4 52 -7c0 -4 -4 -28 -8 -31c-79 1 -172 -11 -256 -24c-3 5 1 31 3 34c16 5 29 7 39 12c17 5 26 20 31 36c7 29 15 76 26 142zM730 37c20 1 38 12 52 33
c21 30 40 94 40 161c0 37 -11 60 -29 60c-24 0 -52 -24 -79 -62c-10 -16 -17 -41 -21 -58c-8 -31 -17 -91 -18 -106c0 -5 1 -11 5 -14c12 -9 27 -14 50 -14zM389 404c0 64 -29 103 -81 103c-4 0 -18 -1 -21 -3c-5 -2 -8 -7 -9 -11c-12 -60 -25 -137 -35 -205
c-1 -5 2 -7 5 -7c37 -2 71 7 85 14c30 14 56 44 56 109z" />
    <glyph glyph-name="figuredash" unicode="&#x2012;" horiz-adv-x="310" 
d="M84 324c71 0 183 4 212 7c3 -2 4 -11 3 -15c-4 -17 -31 -61 -37 -63c-19 -8 -186 -12 -207 -12c-1 3 -3 10 -3 14c4 18 27 69 32 69z" />
    <glyph glyph-name="onethird" unicode="&#x2153;" horiz-adv-x="814" 
d="M303 250c2 -3 -2 -28 -7 -31c-39 0 -86 3 -125 3c-37 0 -78 -3 -114 -3c-2 4 1 27 5 30c18 3 27 3 39 6c21 4 27 20 31 39c5 26 11 56 19 109c9 50 15 87 16 105c1 10 -3 20 -13 21c-8 2 -28 4 -38 6c-3 4 3 27 6 29c53 4 127 20 160 32c3 1 10 -2 10 -4
c-6 -21 -11 -50 -19 -101s-22 -145 -29 -196c-3 -26 3 -35 15 -39c16 -4 30 -5 44 -6zM642 621c1 2 34 -2 39 -4l-1 -5c-19 -21 -452 -626 -488 -668c-1 -1 -6 -3 -7 -2c-7 6 -18 21 -19 26c7 11 470 649 476 653zM658 374c58 0 94 -37 94 -81c0 -39 -28 -63 -73 -84
c-2 -1 -2 -2 -1 -3c50 -17 80 -46 80 -90c0 -87 -96 -139 -187 -139c-31 0 -57 6 -73 13c-9 5 -18 12 -22 25c-6 18 -8 48 -8 62c2 5 21 12 26 12c7 -23 23 -50 41 -61c15 -9 32 -16 53 -16c38 0 63 24 63 71c0 42 -27 74 -79 74c-8 0 -6 1 -18 -1c-1 5 15 38 19 41
c65 11 85 24 86 58c-1 30 -22 53 -56 53c-24 0 -50 -11 -78 -34c-4 -1 -11 21 -10 26c37 39 89 74 143 74z" />
    <glyph glyph-name="twothirds" unicode="&#x2154;" horiz-adv-x="814" 
d="M344 495c0 -51 -20 -85 -84 -135c-28 -23 -55 -40 -70 -50c0 -1 -3 -3 1 -4c20 -2 68 -2 97 -1c15 0 38 17 60 52c4 2 23 -10 25 -14c-8 -20 -40 -88 -54 -107c-6 -8 -15 -16 -31 -16c-51 -2 -134 2 -193 2c-15 0 -32 -1 -46 -1c-2 4 1 24 4 28c52 33 90 60 131 100
c36 37 54 69 54 109c0 31 -23 59 -60 59c-26 0 -49 -11 -81 -38c-4 -1 -16 22 -15 25c47 60 106 92 156 92c60 0 106 -45 106 -101zM662 621c1 2 34 -2 39 -4l-1 -5c-19 -21 -452 -626 -488 -668c-1 -1 -6 -3 -7 -2c-7 6 -18 21 -19 26c7 11 470 649 476 653zM670 374
c58 0 94 -37 94 -81c0 -39 -28 -63 -73 -84c-2 -1 -2 -2 -1 -3c50 -17 80 -46 80 -90c0 -87 -96 -139 -187 -139c-31 0 -57 6 -73 13c-9 5 -18 12 -22 25c-6 18 -8 48 -8 62c2 5 21 12 26 12c7 -23 23 -50 41 -61c15 -9 32 -16 53 -16c38 0 63 24 63 71c0 42 -27 74 -79 74
c-8 0 -6 1 -18 -1c-1 5 15 38 19 41c65 11 85 24 86 58c-1 30 -22 53 -56 53c-24 0 -50 -11 -78 -34c-4 -1 -11 21 -10 26c37 39 89 74 143 74z" />
    <glyph glyph-name="oneeighth" unicode="&#x215b;" horiz-adv-x="814" 
d="M307 250c2 -3 -2 -28 -7 -31c-39 0 -86 3 -125 3c-37 0 -78 -3 -114 -3c-2 4 1 27 5 30c18 3 27 3 39 6c21 4 27 20 31 39c5 26 11 56 19 109c9 50 15 87 16 105c1 10 -3 20 -13 21c-8 2 -28 4 -38 6c-3 4 3 27 6 29c53 4 127 20 160 32c3 1 10 -2 10 -4
c-6 -21 -11 -50 -19 -101s-22 -145 -29 -196c-3 -26 3 -35 15 -39c16 -4 30 -5 44 -6zM640 621c1 2 34 -2 39 -4l-1 -5c-19 -21 -452 -626 -488 -668c-1 -1 -6 -3 -7 -2c-7 6 -18 21 -19 26c7 11 470 649 476 653zM654 374c63 0 103 -36 103 -82c0 -30 -16 -51 -74 -86
c-1 -1 -1 -2 0 -2c52 -35 66 -59 66 -92c0 -68 -75 -120 -161 -120s-127 42 -127 83c0 33 13 55 91 94c0 1 2 2 0 3c-31 23 -44 47 -45 79c0 39 22 77 59 99c27 17 58 24 88 24zM636 345c-29 0 -49 -23 -49 -48c1 -27 18 -46 69 -75c0 0 3 0 4 1c19 19 29 39 29 61
c1 30 -16 61 -53 61zM606 24c30 0 53 18 53 44c-1 27 -19 47 -79 85c-1 1 -2 0 -3 0c-24 -19 -38 -40 -38 -65c0 -33 24 -64 67 -64z" />
    <glyph glyph-name="threeeighths" unicode="&#x215c;" horiz-adv-x="814" 
d="M257 596c58 0 94 -37 94 -81c0 -39 -28 -63 -73 -84c-2 -1 -2 -2 -1 -3c50 -17 80 -46 80 -90c0 -87 -96 -139 -187 -139c-31 0 -57 6 -73 13c-9 5 -18 12 -22 25c-6 18 -8 48 -8 62c2 5 21 12 26 12c7 -23 23 -50 41 -61c15 -9 32 -16 53 -16c38 0 63 24 63 71
c0 42 -27 74 -79 74c-8 0 -6 1 -18 -1c-1 5 15 38 19 41c65 11 85 24 86 58c-1 30 -22 53 -56 53c-24 0 -50 -11 -78 -34c-4 -1 -11 21 -10 26c37 39 89 74 143 74zM655 621c1 2 34 -2 39 -4l-1 -5c-19 -21 -452 -626 -488 -668c-1 -1 -6 -3 -7 -2c-7 6 -18 21 -19 26
c7 11 470 649 476 653zM666 374c63 0 103 -36 103 -82c0 -30 -16 -51 -74 -86c-1 -1 -1 -2 0 -2c52 -35 66 -59 66 -92c0 -68 -75 -120 -161 -120s-127 42 -127 83c0 33 13 55 91 94c0 1 2 2 0 3c-31 23 -44 47 -45 79c0 39 22 77 59 99c27 17 58 24 88 24zM648 345
c-29 0 -49 -23 -49 -48c1 -27 18 -46 69 -75c0 0 3 0 4 1c19 19 29 39 29 61c1 30 -16 61 -53 61zM618 24c30 0 53 18 53 44c-1 27 -19 47 -79 85c-1 1 -2 0 -3 0c-24 -19 -38 -40 -38 -65c0 -33 24 -64 67 -64z" />
    <glyph glyph-name="fiveeighths" unicode="&#x215d;" horiz-adv-x="814" 
d="M325 608c2 0 21 -8 21 -11c-5 -20 -21 -62 -38 -81c-12 -13 -26 -13 -35 -13c-38 0 -74 8 -91 9c-3 0 -4 -2 -6 -4c-3 -4 -6 -15 -8 -20c-1 -2 0 -7 3 -7c23 -11 91 -39 122 -60c31 -20 54 -44 54 -90c0 -87 -91 -136 -166 -136c-54 0 -92 16 -114 43c-4 5 -9 20 -7 28
c1 10 16 39 29 51c3 2 9 4 12 4c26 -43 61 -88 108 -88c31 0 46 19 46 45c-1 19 -8 38 -38 59c-32 23 -97 52 -111 61c-2 3 0 27 2 31c14 36 47 117 72 153c4 7 14 14 24 14c17 1 52 -4 86 -4c14 0 21 2 35 16zM650 621c1 2 34 -2 39 -4l-1 -5c-19 -21 -452 -626 -488 -668
c-1 -1 -6 -3 -7 -2c-7 6 -18 21 -19 26c7 11 470 649 476 653zM661 374c63 0 103 -36 103 -82c0 -30 -16 -51 -74 -86c-1 -1 -1 -2 0 -2c52 -35 66 -59 66 -92c0 -68 -75 -120 -161 -120s-127 42 -127 83c0 33 13 55 91 94c0 1 2 2 0 3c-31 23 -44 47 -45 79
c0 39 22 77 59 99c27 17 58 24 88 24zM643 345c-29 0 -49 -23 -49 -48c1 -27 18 -46 69 -75c0 0 3 0 4 1c19 19 29 39 29 61c1 30 -16 61 -53 61zM613 24c30 0 53 18 53 44c-1 27 -19 47 -79 85c-1 1 -2 0 -3 0c-24 -19 -38 -40 -38 -65c0 -33 24 -64 67 -64z" />
    <glyph glyph-name="seveneighths" unicode="&#x215e;" horiz-adv-x="814" 
d="M648 374c63 0 103 -36 103 -82c0 -30 -16 -51 -74 -86c-1 -1 -1 -2 0 -2c52 -35 66 -59 66 -92c0 -68 -75 -120 -161 -120s-127 42 -127 83c0 33 13 55 91 94c0 1 2 2 0 3c-31 23 -44 47 -45 79c0 39 22 77 59 99c27 17 58 24 88 24zM396 590c3 -1 4 -16 4 -18
c-38 -72 -206 -319 -237 -373l-5 -4c-8 0 -26 9 -31 15c-2 2 -3 8 -1 13c46 64 150 215 184 270c1 2 0 4 -1 4c-28 1 -97 2 -144 -1c-24 -2 -32 -9 -59 -50c-5 -2 -23 8 -25 12c19 39 43 103 53 135c14 -3 34 -5 56 -5h134c27 0 55 1 72 2zM606 621c1 2 34 -2 39 -4l-1 -5
c-19 -21 -452 -626 -488 -668c-1 -1 -6 -3 -7 -2c-7 6 -18 21 -19 26c7 11 470 649 476 653zM600 24c30 0 53 18 53 44c-1 27 -19 47 -79 85c-1 1 -2 0 -3 0c-24 -19 -38 -40 -38 -65c0 -33 24 -64 67 -64zM630 345c-29 0 -49 -23 -49 -48c1 -27 18 -46 69 -75c0 0 3 0 4 1
c19 19 29 39 29 61c1 30 -16 61 -53 61z" />
    <glyph glyph-name="zero.ak" horiz-adv-x="508" 
d="M368 512c-10 35 -30 47 -54 47c-114 0 -148 -275 -149 -395c0 -9 1 -24 3 -29zM378 463v-1l-200 -376c9 -35 25 -59 56 -60c109 0 145 292 145 417c0 7 0 16 -1 20zM328 596c128 0 176 -93 176 -210c0 -132 -51 -303 -167 -369c-34 -20 -81 -29 -121 -29
c-131 0 -178 92 -177 212c1 114 41 280 149 353c46 31 95 43 140 43z" />
    <glyph glyph-name="Euro" unicode="&#x20ac;" horiz-adv-x="508" 
d="M85 231l-57 -1c2 11 8 37 13 41l47 -1c2 17 4 38 8 53h-45c3 10 9 34 14 38h40c26 88 75 154 148 197c42 25 87 38 146 38c28 0 43 -2 69 -5c20 -3 37 -5 52 -6c-8 -40 -17 -86 -23 -133c-4 -5 -32 -7 -34 -4c-3 45 -7 78 -28 96c-14 13 -33 17 -48 17
c-64 0 -117 -64 -144 -195c-1 -3 1 -6 3 -6c88 0 151 2 166 2c1 -5 -8 -34 -11 -39h-163c-2 0 -4 -4 -5 -5c-2 -11 -5 -29 -5 -43c0 -2 1 -5 5 -5c56 0 140 1 155 1c1 -5 -7 -34 -11 -40h-149c-2 0 -4 -2 -4 -4c-7 -101 14 -193 94 -193c21 0 44 3 67 25c21 19 45 49 58 72
c6 -2 24 -11 26 -19c-15 -37 -47 -88 -74 -108c-25 -11 -60 -19 -107 -19c-139 0 -211 82 -203 246z" />
    <glyph glyph-name="franc" unicode="&#x20a3;" horiz-adv-x="508" 
d="M38 152c2 10 8 35 12 39c12 0 26 -1 59 -1c16 93 43 262 48 311c3 34 -2 40 -19 45c-14 5 -24 6 -43 9c-3 5 2 28 4 33c35 0 76 -3 130 -3l174 -1c67 0 95 3 113 6c2 0 4 -4 3 -7c-13 -35 -25 -80 -37 -138c-7 -4 -29 -6 -34 -2c0 36 -1 51 -5 68c-4 20 -16 25 -33 27
c-28 2 -86 3 -106 2c-5 -1 -11 -8 -12 -14c-8 -39 -21 -124 -33 -199c-1 -4 2 -6 5 -6c26 0 65 0 94 1c22 2 30 11 39 30c5 6 8 16 15 37c5 2 31 1 37 -2c-4 -18 -12 -49 -19 -91l-10 -81c-5 -4 -29 -7 -36 -5c-1 17 -1 23 -3 35c-3 23 -17 27 -28 28c-21 2 -71 2 -97 2
c-2 0 -5 -3 -6 -6c-4 -20 -9 -53 -12 -74c0 -1 2 -5 3 -5h81c0 -7 -7 -32 -10 -38c-19 0 -30 1 -77 1c-2 0 -4 -2 -4 -4c-3 -19 -7 -46 -8 -61c-5 -31 1 -42 23 -48c16 -4 28 -5 51 -7c1 -6 -1 -33 -8 -37c-51 0 -91 4 -142 4c-50 0 -85 -4 -140 -4c-3 5 2 32 6 35
c14 3 30 3 41 6c25 6 31 18 36 46c2 7 8 41 13 70c-31 -1 -49 -1 -65 -1z" />
    <glyph glyph-name="lira" unicode="&#x20a4;" horiz-adv-x="508" 
d="M128 309l-69 1v7c3 8 12 29 17 35c17 -1 37 -1 56 -1c10 70 27 115 62 155c67 78 147 89 183 89c65 0 88 -24 87 -33c-1 -20 -22 -63 -35 -75c-5 -1 -10 -1 -14 -1c-19 22 -49 66 -89 66c-11 0 -23 -7 -30 -20c-16 -26 -24 -85 -33 -175c0 -2 1 -6 3 -6c41 0 84 0 122 3
c1 -4 -1 -13 -4 -18c-10 -14 -24 -22 -40 -25c-28 -3 -55 -4 -82 -4c-3 0 -5 -3 -6 -5c-1 -14 -5 -28 -7 -40c0 -2 2 -6 5 -6c49 0 82 0 112 3c1 -3 -1 -15 -4 -18c-9 -13 -24 -21 -40 -24c-19 -4 -58 -5 -84 -5c-2 0 -6 -3 -8 -6c-21 -44 -48 -76 -86 -100
c29 5 68 -1 103 -6c26 -4 67 -11 92 -11c51 0 77 10 117 89c2 1 7 1 8 0c5 -4 15 -15 16 -24c-49 -130 -118 -180 -181 -180c-34 0 -56 6 -105 22c-50 15 -83 23 -108 23c-17 0 -43 -5 -75 -36c-5 2 -11 7 -14 10c0 0 28 71 33 75c14 11 32 20 46 27c13 6 36 31 44 118
c2 0 -60 1 -82 1v7c3 9 12 30 18 36c10 0 67 -1 67 -1c2 13 4 41 5 53z" />
    <glyph glyph-name="uni20A7" unicode="&#x20a7;" horiz-adv-x="508" 
d="M476 380c-1 0 -4 -2 -5 -4c-13 -52 -43 -93 -79 -117c-47 -32 -104 -38 -140 -38c-13 0 -25 0 -38 2c-3 0 -5 -4 -5 -5l-18 -123c-6 -39 -4 -52 25 -57c11 -2 31 -4 40 -5c5 -5 0 -31 -6 -36c-38 0 -94 3 -133 3c-36 0 -97 -3 -134 -3c-2 4 1 29 6 34l36 6
c24 4 29 20 37 61c13 62 32 184 47 277c1 2 0 5 -3 5h-52c-1 4 6 35 11 38h47c2 0 4 4 5 6l10 66c5 30 6 48 -14 55c-11 3 -23 5 -42 8c-3 4 2 31 6 34c19 0 74 -3 121 -3c43 0 82 1 123 1c69 0 158 -30 155 -162c0 -2 0 -5 3 -5h32c0 -10 -8 -37 -10 -37
c-4 -1 -10 -1 -25 -1zM234 376l-17 -109c-1 -2 2 -5 4 -5c9 -2 21 -2 28 -2c50 0 86 38 96 114c0 2 0 6 -3 6h-103c-2 0 -5 -2 -5 -4zM245 418h102c2 0 5 4 5 6c5 93 -34 124 -67 124c-18 0 -24 -3 -28 -29l-16 -96c0 -2 1 -5 4 -5z" />
    <glyph glyph-name="uni20B4" unicode="&#x20b4;" horiz-adv-x="508" 
d="M126 229c-45 0 -62 -1 -69 -1c3 13 10 33 12 37c12 0 16 -1 91 -1l63 49c-136 0 -127 -2 -139 -2c3 13 11 33 13 37c15 0 -7 -1 165 -1c56 45 91 78 91 113c0 40 -30 68 -76 68c-57 0 -79 -17 -130 -94c0 -1 -3 -1 -6 0c-9 3 -21 12 -18 17c19 51 36 78 48 88
c34 27 104 57 163 57c86 0 147 -51 147 -128c0 -49 -16 -75 -68 -121c58 0 74 1 80 1c1 -7 -6 -30 -10 -36c-12 0 -21 1 -103 1l-64 -49c149 0 141 1 150 1c1 -7 -5 -30 -10 -36c-15 0 13 1 -176 1c-58 -49 -80 -75 -80 -113c0 -54 45 -73 84 -73c65 0 105 36 164 122
c3 1 22 -12 23 -19c-21 -54 -64 -109 -90 -127c-23 -13 -64 -33 -143 -33c-106 0 -172 52 -172 128c0 45 19 78 60 114z" />
    <glyph glyph-name="u0025.d" horiz-adv-x="676" 
d="M125 93c144 170 282 328 426 497c9 5 40 10 47 11c0 -1 2 -8 3 -10c-40 -40 -384 -447 -457 -529h-6c-2 3 -14 25 -13 31zM535 368c75 0 113 -62 103 -129c-9 -71 -44 -106 -69 -123c-39 -25 -66 -29 -102 -29c-76 0 -112 60 -101 130c7 56 30 90 65 117
c26 22 63 34 104 34zM515 337c-33 0 -50 -57 -55 -99c-12 -86 12 -119 36 -119c32 0 48 45 54 93c9 59 3 125 -35 125zM244 574c78 0 108 -69 100 -128c-11 -72 -48 -108 -73 -124c-38 -25 -63 -29 -100 -29c-71 0 -109 56 -101 129c6 53 31 91 65 117c28 22 66 35 109 35z
M220 543c-32 0 -48 -56 -54 -99c-12 -85 9 -118 35 -118c33 0 51 47 57 95c9 65 0 122 -38 122z" />
    <glyph glyph-name="uni2116" unicode="&#x2116;" horiz-adv-x="879" 
d="M215 596c15 1 29 -23 37 -39c52 -110 113 -253 157 -360h2c11 70 18 121 30 194c23 147 84 203 119 209c14 0 37 -26 40 -35c1 -3 -2 -12 -2 -13c-73 -21 -88 -27 -107 -144l-42 -281c-9 -55 -11 -96 -8 -122c-9 -5 -84 -22 -88 -21c-30 73 -98 282 -160 410h-3
c-15 -101 -28 -167 -36 -215c-23 -144 -87 -195 -119 -196c-24 1 -36 20 -40 39c-1 6 2 47 5 51c6 -1 36 -5 42 -5c40 0 50 22 70 146c8 48 31 199 33 229c1 19 4 47 -17 79c-11 18 -30 23 -54 27c-3 4 4 29 7 31c42 6 87 15 134 16zM747 547c72 0 111 -48 114 -109
c4 -80 -27 -156 -100 -196c-36 -20 -66 -23 -99 -23c-66 0 -113 43 -113 120c0 71 34 131 66 158c36 33 80 50 132 50zM727 513c-46 0 -70 -118 -69 -179c1 -53 16 -76 39 -76c47 0 72 128 69 181c-2 44 -12 74 -39 74zM576 170c11 1 28 0 47 1c93 4 160 6 192 18
c1 -3 -5 -27 -8 -30c-17 -20 -42 -26 -61 -30c-47 -11 -171 -14 -213 -14l-1 11c13 20 38 43 44 44z" />
    <glyph glyph-name="uni212E" unicode="&#x212e;" horiz-adv-x="826" 
d="M804 316h-605c-3 0 -5 -1 -5 -4v-183c0 -8 4 -15 9 -21c57 -61 139 -99 229 -99c96 0 182 43 240 111h55c-68 -79 -176 -131 -296 -131c-206 0 -374 150 -374 336s168 336 374 336s373 -150 373 -336v-9zM668 340v184c0 9 -4 16 -10 22c-58 58 -138 95 -226 95
c-90 0 -170 -38 -228 -98c-6 -6 -10 -14 -10 -23v-180c0 -3 2 -5 5 -5h464c3 0 5 2 5 5z" />
    <glyph glyph-name="u212E.d" horiz-adv-x="612" 
d="M388 594c129 0 195 -99 194 -192c0 -21 -6 -52 -13 -61c-31 -19 -105 -25 -222 -25c-35 0 -90 2 -131 2c-3 0 -6 -6 -6 -8c-2 -17 -4 -32 -3 -47c0 -92 44 -188 172 -188c59 0 103 14 159 57c2 1 6 -5 6 -7c0 -9 -5 -31 -7 -34c-59 -64 -146 -105 -242 -105
c-150 0 -224 119 -224 250c-1 107 44 257 190 330c52 25 101 28 127 28zM357 554c-80 0 -125 -108 -139 -183c0 -4 2 -9 5 -9c36 -3 177 -6 207 -1c9 2 17 11 19 17c4 11 5 22 5 33c0 65 -24 143 -97 143z" />
    <glyph glyph-name="Q.d" horiz-adv-x="699" 
d="M330 24c29 0 53 11 75 30c70 65 113 206 113 346c0 116 -36 181 -113 181c-126 0 -192 -228 -192 -379c0 -120 44 -178 117 -178zM423 621c160 0 244 -102 244 -250c0 -98 -29 -195 -88 -266c-37 -46 -97 -85 -148 -101c-1 -1 -2 -3 -1 -5c42 -15 90 -43 182 -92
c162 -87 275 -123 366 -124c81 -1 144 16 205 51c4 -3 8 -31 4 -38c-91 -84 -224 -113 -323 -113c-96 0 -174 29 -285 96c-106 65 -159 108 -235 159c-47 29 -70 36 -110 51c-113 40 -169 117 -170 239c0 96 33 217 128 298c64 63 142 95 231 95z" />
    <glyph glyph-name="a.e" horiz-adv-x="656" 
d="M336 416c49 0 85 -5 120 -13c-10 -22 -19 -45 -25 -70c-14 -62 -37 -189 -37 -210c-1 -20 4 -39 28 -40c22 0 64 13 113 68c48 54 62 112 75 177c0 5 18 2 20 -3c5 -15 11 -38 11 -49c0 -57 -37 -145 -180 -234c-33 -21 -104 -58 -162 -58c-26 0 -38 29 -31 73
c2 18 6 37 9 58c1 3 -4 4 -6 1c-50 -65 -128 -131 -181 -131c-47 0 -59 58 -59 103c0 79 32 176 90 234c42 39 133 94 215 94zM184 87c23 0 66 39 97 102c9 17 17 47 28 96c7 32 14 55 17 66c-14 10 -42 12 -58 12c-38 0 -65 -14 -90 -75c-13 -33 -23 -86 -23 -135
s12 -66 29 -66z" />
    <glyph glyph-name="d.e" horiz-adv-x="703" 
d="M309 414c6 0 25 0 39 -1c3 0 6 0 6 4c13 62 19 105 23 142c2 11 0 23 -14 24c-12 1 -34 -2 -56 -7c-2 7 3 28 7 32c52 21 149 58 186 58c13 0 13 -27 6 -64c-29 -149 -86 -443 -89 -532c0 -6 3 -8 5 -8c16 -3 48 -11 109 -11c30 0 67 11 113 163c0 2 3 5 6 5
c6 0 25 -19 25 -30c1 -83 -60 -191 -194 -192c-7 0 -119 3 -127 3c-23 1 -55 -4 -75 -14c-3 -1 -8 15 -6 19c10 12 16 28 21 52c4 21 7 37 7 49c0 2 -2 4 -4 2c-54 -64 -133 -124 -191 -124c-49 0 -70 58 -70 121c0 71 23 168 88 235c32 33 128 74 185 74zM198 79h1
c29 0 68 34 96 80c12 19 17 29 25 59c7 32 17 91 17 102c1 11 -2 25 -7 30c-13 14 -34 22 -60 22c-64 0 -104 -123 -104 -227c0 -39 10 -66 32 -66z" />
    <glyph glyph-name="e.e" horiz-adv-x="613" 
d="M228 370c-30 0 -56 -43 -68 -124c0 -4 1 -6 5 -4c12 5 29 10 49 15s50 24 50 63c0 33 -20 50 -36 50zM285 416c49 0 77 -28 77 -67c0 -38 -29 -67 -68 -86c29 0 71 -2 104 -3c40 0 79 -1 102 2c70 5 75 29 75 82c0 22 -5 51 -11 69c3 2 19 3 25 0c22 -11 44 -39 43 -62
c0 -74 -72 -141 -228 -141c-99 0 -174 5 -215 0c-8 0 -21 0 -27 -2c-3 -1 -6 -6 -6 -8c-1 -6 -1 -25 -1 -30c0 -50 18 -98 73 -98c27 0 65 6 121 61c4 -2 9 -20 8 -30c-38 -57 -133 -116 -207 -116c-93 0 -113 77 -113 147c0 108 52 184 86 213c31 28 109 69 162 69z" />
    <glyph glyph-name="g.e" horiz-adv-x="537" 
d="M393 302c0 -70 -33 -126 -81 -159c-44 -30 -89 -36 -106 -38l-20 -3c-7 0 -16 -7 -16 -13c0 -10 9 -17 30 -26c41 -15 94 -36 132 -59c40 -23 67 -49 67 -93c0 -38 -29 -88 -89 -124c-54 -33 -109 -43 -144 -43c-120 0 -197 59 -197 125c0 34 60 66 123 98c2 1 1 2 0 3
c-21 16 -41 37 -41 60c0 3 4 16 8 20c16 16 61 42 77 50c2 1 2 4 0 5c-62 13 -90 58 -89 112c0 66 36 128 88 162c37 25 82 38 120 38c33 0 73 -13 113 -24c32 -8 77 -16 122 -16c63 0 81 34 81 91c0 17 -5 47 -10 63c4 2 19 2 23 0c21 -10 41 -37 41 -60
c-1 -73 -65 -145 -213 -145h-19v-24zM215 -207c56 0 81 22 81 50c0 19 -14 40 -42 57c-38 24 -96 51 -120 51c-18 0 -71 -32 -71 -61c0 -48 67 -97 152 -97zM210 140c46 0 68 108 69 170c0 55 -18 73 -41 73c-42 0 -71 -100 -71 -172c0 -44 14 -71 43 -71z" />
    <glyph glyph-name="h.e" horiz-adv-x="712" 
d="M409 416c47 0 48 -53 35 -124c-16 -89 -34 -166 -36 -198c0 -14 4 -29 15 -36c24 -14 62 -16 84 -16c83 0 121 22 123 124c0 17 0 31 -2 40c3 4 16 4 21 2c17 -10 35 -38 35 -63c-1 -99 -127 -161 -260 -161c-49 0 -85 2 -113 13c-20 9 -36 24 -28 70
c12 73 25 137 41 212c7 34 5 49 -7 49c-22 0 -68 -39 -108 -107c-18 -32 -30 -63 -40 -105c-8 -35 -13 -61 -3 -85c-12 -15 -100 -47 -118 -49c-4 1 -12 8 -13 13c-2 9 2 31 5 53c26 161 67 345 92 499c2 17 2 31 -11 32c-13 0 -33 -6 -54 -12c-1 6 3 30 6 35
c50 29 144 68 182 68c6 -1 18 -11 8 -62l-64 -333c0 -2 3 -2 5 0c62 78 140 141 205 141z" />
    <glyph glyph-name="m.e" horiz-adv-x="933" 
d="M195 416c27 0 29 -43 20 -95l-8 -40c2 -1 4 -1 6 0c48 58 141 135 199 135c28 0 44 -27 40 -78c-1 -19 -3 -35 -7 -58c1 -1 3 0 4 1c40 51 134 135 201 135c47 0 41 -64 32 -123c-13 -79 -36 -200 -39 -222c0 -4 3 -11 7 -12c14 -4 48 -9 102 -9c36 0 75 16 115 164
c1 2 6 4 9 4c5 0 23 -19 23 -33c0 -87 -61 -187 -195 -188c-7 0 -127 3 -135 3c-23 1 -47 -1 -63 -6c-3 -1 -9 14 -7 17c10 13 15 26 22 54c13 62 28 142 44 220c5 24 2 41 -11 41c-19 0 -56 -23 -100 -97c-19 -33 -33 -71 -44 -129c-8 -36 -11 -56 -6 -73
c-19 -13 -95 -42 -115 -43c-4 1 -13 7 -13 15c8 56 47 201 57 289c3 23 -1 38 -14 38c-21 0 -64 -37 -98 -89c-11 -19 -27 -48 -44 -115c-14 -55 -17 -75 -12 -95c-17 -11 -95 -41 -115 -43c-7 1 -11 9 -12 15c2 17 7 39 14 71c17 78 40 183 45 223c2 8 2 22 -8 22
c-9 0 -30 -15 -49 -31c-1 0 -3 2 -4 4c-3 7 -2 22 0 28c66 69 129 100 159 100z" />
    <glyph glyph-name="n.e" horiz-adv-x="697" 
d="M39 282c-2 0 -5 1 -5 3c-1 7 1 30 4 33c56 59 128 98 158 98c21 0 32 -28 20 -92c-3 -17 -5 -32 -8 -44c1 -1 2 -1 4 -1c32 42 88 96 144 122c20 10 37 15 57 15c50 0 45 -69 30 -141c-12 -63 -33 -167 -38 -199c0 -7 5 -15 10 -17c16 -4 47 -9 101 -9
c35 0 75 16 115 164c1 2 5 5 8 4c7 -1 24 -19 24 -33c0 -92 -68 -187 -195 -188c-7 0 -128 3 -136 3c-22 1 -46 -1 -62 -6c-3 -1 -9 14 -7 17c10 13 13 26 23 73c13 59 26 113 42 193c5 30 6 50 -10 50c-21 0 -62 -36 -99 -96c-12 -19 -29 -50 -45 -126
c-8 -41 -9 -58 -6 -77c-21 -14 -101 -44 -114 -44c-7 0 -13 10 -11 23c6 49 49 239 56 289c1 8 1 18 -8 18c-11 0 -34 -15 -52 -32z" />
    <glyph glyph-name="r.e" horiz-adv-x="518" 
d="M37 286c-1 1 -3 2 -4 4c-3 8 -4 23 -3 27c69 66 132 99 159 99c24 0 23 -48 14 -103l-8 -46c1 -1 1 -1 3 0c33 59 95 149 157 149c31 0 84 -26 113 -26c26 0 52 12 87 64c1 0 5 3 8 0c5 -6 7 -25 7 -31c-48 -91 -117 -133 -162 -133c-53 0 -89 28 -118 28
c-20 0 -45 -14 -86 -103c-11 -27 -22 -59 -32 -108c-5 -27 -12 -58 -6 -78c-17 -13 -96 -42 -115 -45c-4 1 -12 8 -12 16c9 56 45 200 52 268c3 27 5 46 -4 46s-30 -12 -50 -28z" />
    <glyph glyph-name="longs" unicode="&#x17f;" horiz-adv-x="266" 
d="M367 670c30 1 53 -9 53 -25c0 -19 -30 -59 -49 -73c-5 -4 -13 -2 -15 -2c-21 20 -45 37 -65 37c-14 0 -25 -15 -32 -39c-12 -41 -27 -134 -42 -241c-16 -113 -32 -232 -52 -333c-30 -143 -175 -245 -255 -245c-42 0 -64 19 -64 41c1 19 15 57 25 74c2 4 10 8 14 10
c33 -38 70 -61 98 -61c18 0 28 12 37 60c28 151 51 316 66 404c30 187 73 273 165 344c36 29 81 49 116 49z" />
    <glyph glyph-name="t.e" horiz-adv-x="610" 
d="M266 569c5 2 9 -8 7 -10c-8 -17 -13 -33 -19 -57l-19 -93c-1 -3 0 -8 6 -8c20 -1 155 -2 234 0c100 3 142 18 143 114c0 23 -2 41 -5 56c2 4 22 6 29 3c9 -7 27 -30 26 -66c-1 -104 -127 -163 -218 -163c-71 -1 -182 3 -221 4c-3 0 -5 -2 -6 -5
c-14 -66 -35 -185 -38 -231c-2 -25 7 -34 18 -34c22 0 60 28 86 62c2 -1 5 -3 6 -7c0 -10 -4 -32 -8 -39c-30 -43 -112 -111 -180 -111c-39 0 -53 34 -49 97c2 32 31 194 46 264c0 2 -1 5 -3 5c-14 0 -48 1 -63 3c-2 1 -1 10 0 12c6 10 35 34 42 36c5 1 23 2 30 2
c3 0 6 2 7 5c13 47 17 71 26 91c4 10 47 48 123 70z" />
    <glyph glyph-name="u.e" horiz-adv-x="673" 
d="M195 84c26 0 69 42 99 95c7 12 20 53 25 73c17 82 22 107 30 120c10 9 96 42 118 44c3 -1 7 -7 7 -12c-6 -10 -12 -29 -18 -54c-16 -70 -41 -197 -42 -225c-2 -20 -1 -43 22 -44c22 0 68 15 117 70c47 54 62 112 74 177c0 5 18 2 20 -3c6 -15 11 -38 11 -49
c0 -57 -36 -144 -178 -233c-33 -21 -106 -59 -165 -59c-24 0 -36 25 -32 65c2 25 6 41 11 65c-1 1 -4 1 -5 0c-20 -26 -46 -53 -80 -82c-36 -31 -74 -48 -108 -48s-59 27 -42 121l39 187c3 13 2 20 -4 20c-9 0 -32 -12 -52 -28c-2 -1 -5 2 -5 4c-1 7 4 28 7 32
c56 57 132 96 162 96c18 0 32 -17 15 -99c-19 -91 -32 -144 -40 -202c-1 -18 2 -31 14 -31z" />
    <glyph glyph-name="v.cz" horiz-adv-x="677" 
d="M175 376c61 24 106 28 190 28c30 0 99 -2 133 -2c2 0 3 -8 2 -11c-4 -12 -23 -38 -35 -47c-18 -22 -30 -31 -41 -37c-8 -6 -15 -13 -20 -22c-23 -40 -33 -80 -33 -108c0 -57 33 -84 73 -84c66 0 136 70 142 230c3 38 -5 97 -21 121c-2 3 14 9 22 8c7 0 69 -26 69 -89
c0 -196 -191 -379 -298 -379c-62 0 -93 44 -93 99c0 65 47 136 107 216c1 2 2 5 0 5c-41 1 -85 3 -111 3c-141 0 -176 -10 -176 -97c0 -14 5 -42 7 -47c0 -4 -19 -7 -24 -5c-9 3 -33 19 -33 59s47 121 140 159z" />
    <glyph glyph-name="y.d" horiz-adv-x="491" 
d="M218 325c-11 -61 -31 -156 -38 -204c-2 -20 0 -37 18 -37c13 0 45 15 89 86c11 19 27 69 33 94c7 30 19 85 26 102c17 20 102 48 128 53c3 -1 8 -14 7 -18c-19 -20 -28 -63 -32 -80c-16 -72 -35 -171 -46 -229c-30 -154 -68 -213 -117 -261c-42 -44 -123 -89 -194 -89
c-73 0 -100 39 -103 117c0 3 0 15 2 21c2 4 19 17 20 14c23 -52 86 -93 142 -93c63 0 87 25 122 194c11 53 17 90 23 129h-4c-40 -53 -77 -90 -115 -113c-32 -20 -55 -26 -79 -26c-22 0 -54 15 -43 93c8 57 23 133 38 206c2 14 2 25 -7 25s-29 -11 -53 -32c-1 0 -5 1 -6 3
s2 26 4 32c39 45 129 105 171 105c27 0 22 -51 14 -92z" />
    <glyph glyph-name="z.d" horiz-adv-x="456" 
d="M225 414c53 0 107 -16 156 -28c8 -2 15 0 24 6c15 12 33 33 48 33c7 0 15 -9 15 -18c-3 -38 -62 -92 -89 -117c-17 -15 -108 -106 -184 -178c-3 -5 0 -5 4 -7c63 -18 123 -61 227 -146c100 -82 227 -192 349 -192c93 0 148 51 172 84c2 3 9 -3 9 -6c0 -4 -2 -28 -4 -33
c-34 -57 -126 -143 -259 -143c-65 0 -128 24 -198 77c-74 55 -168 146 -250 217c-29 24 -80 73 -121 73c-10 0 -25 -9 -35 -19s-18 -20 -24 -20c-4 0 -12 9 -12 22c0 25 21 59 63 79c7 5 15 8 23 13c32 25 131 126 175 171c2 1 5 7 1 9c-21 7 -72 19 -139 19
c-74 0 -106 -32 -131 -83c-1 -3 -5 -3 -9 0c-7 4 -14 13 -14 22c0 7 13 55 55 102c48 52 96 63 148 63z" />
    <glyph glyph-name="c_h" horiz-adv-x="845" 
d="M230 364c-34 0 -66 -70 -66 -188c0 -67 22 -109 71 -109c28 0 66 14 114 64c1 0 5 -4 5 -7c0 -8 -3 -31 -7 -36c-55 -73 -136 -104 -197 -104c-43 0 -75 19 -91 49c-16 26 -21 62 -21 93c0 84 36 178 103 228c52 40 115 61 158 61c35 0 55 -8 67 -17c10 -7 12 -19 10 -27
c-4 -17 -33 -63 -51 -72c-4 -2 -12 0 -14 2c-25 32 -52 63 -81 63zM662 328c-22 0 -68 -39 -108 -107c-18 -32 -30 -63 -40 -105c-8 -35 -13 -61 -3 -85c-12 -15 -100 -47 -118 -49c-4 1 -12 8 -13 13c-2 9 2 31 5 53c26 161 67 345 92 499c2 17 2 31 -11 32
c-13 0 -34 -6 -55 -12c-1 6 4 30 7 35c50 29 143 68 182 68c10 0 18 -11 8 -62l-64 -332c0 -2 3 -2 5 0c62 79 141 140 205 140c48 0 48 -53 35 -124c-16 -89 -31 -155 -34 -189c0 -14 2 -19 9 -19c14 0 30 13 53 33c1 -2 4 -5 4 -9c0 -10 -4 -26 -6 -31
c-31 -42 -111 -92 -161 -92c-26 0 -35 31 -26 82c12 73 25 137 41 212c7 34 5 49 -7 49z" />
    <glyph glyph-name="c_k" horiz-adv-x="820" 
d="M230 364c-34 0 -66 -70 -66 -188c0 -67 22 -109 71 -109c28 0 66 14 114 64c1 0 5 -4 5 -7c0 -8 -3 -31 -7 -36c-55 -73 -136 -104 -197 -104c-43 0 -75 19 -91 49c-16 26 -21 62 -21 93c0 84 36 178 103 228c52 40 115 61 158 61c35 0 55 -8 67 -17c10 -7 12 -19 10 -27
c-4 -17 -33 -63 -51 -72c-4 -2 -12 0 -14 2c-25 32 -52 63 -81 63zM598 670c14 0 17 -21 10 -61c-24 -124 -47 -232 -77 -383c-1 -6 5 -5 7 -3c46 56 155 193 222 193c32 0 50 -11 57 -22c2 -4 1 -16 -1 -23c-5 -19 -40 -63 -53 -68c-6 5 -40 22 -70 22
c-31 0 -72 -52 -84 -69c-1 -1 -2 -4 1 -5c7 -6 20 -20 37 -47c66 -102 86 -120 102 -120c17 0 33 9 62 44c1 0 5 -1 6 -4c3 -8 0 -31 -2 -35c-38 -59 -96 -104 -139 -104c-22 0 -39 11 -59 38c-25 35 -61 116 -79 138c-4 4 -9 3 -11 1c-4 -3 -11 -16 -14 -28
c-4 -16 -8 -38 -10 -55c-3 -21 -1 -33 6 -48c-13 -16 -107 -49 -117 -49c-11 0 -13 12 -13 27c0 13 1 27 16 103c21 107 76 384 82 435c4 22 1 31 -10 31c-12 0 -36 -4 -54 -11c-2 6 3 33 7 35c87 48 157 68 178 68z" />
    <glyph glyph-name="c_t" horiz-adv-x="670" 
d="M38 123c0 84 40 182 107 231c40 28 83 46 120 55c-1 5 -1 14 -1 18c0 23 14 79 69 122c34 27 86 57 176 69c51 7 102 8 137 8c5 0 8 -5 6 -8c-5 -12 -14 -31 -20 -48c-9 -27 -28 -104 -37 -162c-1 -3 2 -7 4 -7c44 0 95 4 104 8c1 -4 -2 -17 -3 -20
c-8 -13 -31 -28 -48 -33c-20 -5 -38 -5 -64 -7c-2 0 -4 -4 -5 -6c-15 -79 -35 -187 -38 -225c-2 -25 2 -39 17 -39c25 0 62 33 87 62c2 0 5 -4 5 -7c0 -10 -5 -30 -8 -39c-30 -43 -114 -111 -180 -111c-36 0 -52 37 -47 99c3 37 32 191 47 260c0 2 -1 5 -3 5
c-27 0 -39 1 -54 3c-1 1 -2 7 -1 9c7 10 38 41 44 42h20c2 0 5 3 6 5c7 29 8 38 15 61c9 33 25 69 40 88c-1 0 -2 2 -3 2c-170 13 -192 -43 -192 -96c0 -25 11 -43 18 -48c5 -4 14 -9 18 -13c4 -3 6 -12 4 -18c-4 -17 -44 -53 -62 -61c-5 -3 -12 0 -14 1
c-22 26 -38 44 -61 44c-37 0 -76 -83 -76 -196c0 -67 22 -104 68 -104c29 0 69 13 115 60c3 0 6 -4 6 -6c1 -7 0 -24 -4 -30c-54 -71 -133 -107 -200 -107c-43 0 -76 20 -92 50c-16 26 -20 59 -20 89z" />
    <glyph glyph-name="f_t.d" horiz-adv-x="565" 
d="M-123 -138c2 3 10 8 13 10c34 -38 70 -59 99 -59c18 0 27 15 36 59c30 163 49 300 79 478l-72 2c0 2 -1 6 0 9c7 12 31 41 37 42c1 0 24 1 46 0c22 91 65 166 145 219c44 30 98 44 139 44c38 0 70 -6 88 -19c31 -19 39 -39 27 -105l-26 -132c0 -3 3 -7 5 -7
c43 0 94 4 103 8c1 -4 -1 -17 -3 -20c-8 -13 -30 -29 -48 -34c-20 -4 -37 -5 -63 -7c-3 0 -5 -4 -6 -6c-14 -79 -35 -188 -38 -226c-2 -25 2 -39 17 -39c25 0 63 33 87 62c2 0 5 -4 5 -7c0 -10 -5 -30 -8 -39c-36 -52 -115 -111 -181 -111c-36 0 -52 37 -47 99
c3 37 32 192 47 260c0 3 -1 6 -3 6h-127c-17 -112 -39 -261 -60 -362c-29 -142 -181 -238 -253 -238c-42 0 -64 19 -63 41c0 19 14 54 25 72zM236 403h128c2 0 5 2 6 4c10 44 24 104 31 149c2 14 1 29 -7 39c-13 15 -35 22 -53 22c-70 0 -88 -119 -105 -214z" />
    <glyph glyph-name="l_l" horiz-adv-x="504" 
d="M60 539c-2 5 3 31 6 34c69 38 147 67 177 67c15 -1 18 -24 9 -64c-25 -133 -77 -392 -81 -454c-2 -17 0 -38 16 -38c21 0 62 21 109 87c9 11 14 23 17 36c22 123 55 276 65 352c1 11 -1 19 -10 20c-11 0 -31 -3 -54 -10c-2 5 3 31 6 34c73 38 147 67 177 67
c15 -1 17 -24 8 -64c-24 -133 -82 -423 -87 -491c-2 -19 0 -32 12 -32c11 0 28 10 60 38c1 -1 4 -4 4 -8s-2 -26 -7 -32c-45 -53 -116 -97 -164 -97c-26 0 -40 36 -32 95l8 46c-63 -79 -155 -141 -218 -141c-32 0 -46 39 -36 100c14 97 68 350 80 445c1 11 -1 20 -9 20
c-12 1 -33 -3 -56 -10z" />
    <glyph glyph-name="s_p" horiz-adv-x="798" 
d="M538 36c22 0 41 15 57 37c23 35 46 112 46 187c0 47 -12 68 -32 68s-57 -25 -91 -71c-11 -16 -19 -48 -24 -67c-8 -38 -18 -101 -20 -118c0 -5 3 -11 7 -16c13 -15 31 -21 57 -20zM692 416c38 0 76 -40 75 -124c-2 -95 -38 -174 -94 -223c-44 -39 -131 -83 -183 -83
c-12 0 -21 2 -28 4c-7 -38 -16 -102 -19 -138c-1 -18 1 -32 21 -37c11 -3 32 -5 58 -8c2 -4 -2 -28 -6 -33c-88 1 -185 -11 -279 -25c-3 5 0 30 3 33c18 5 31 8 42 12c19 6 28 20 33 41c10 43 19 95 33 177c13 81 27 169 43 258c22 130 50 221 101 280
c-162 7 -202 -27 -204 -99c0 -21 8 -39 13 -43c7 -4 16 -9 20 -14c0 -1 2 -13 -1 -17c-7 -17 -30 -44 -44 -56c-5 -4 -14 -6 -15 -5c-24 31 -53 44 -78 44c-23 0 -36 -16 -36 -32c0 -20 11 -35 83 -87c48 -35 70 -66 70 -101c-1 -39 -22 -80 -77 -116
c-43 -28 -89 -40 -132 -40c-50 0 -89 28 -89 54c0 16 18 59 34 83c4 5 17 7 18 5c20 -67 72 -88 103 -88c28 0 43 15 43 33c0 19 -13 36 -71 81c-48 37 -67 64 -67 100c0 29 8 67 51 106c23 22 66 46 112 56c0 1 -1 7 -1 9c2 34 24 90 88 133c29 20 68 43 142 55
c33 5 116 10 152 9c4 0 6 -5 5 -7c-3 -11 -20 -37 -35 -48c-3 -3 -8 -7 -12 -9c-7 -9 -17 -33 -36 -147l-18 -106c0 -2 3 -4 4 -2c55 63 127 115 178 115z" />
    <glyph glyph-name="s_t" unicode="&#xfb06;" horiz-adv-x="619" 
d="M209 409h1c-1 3 -1 13 -1 16c0 23 7 73 53 114c34 32 82 60 160 75c53 10 126 14 180 15c4 0 6 -7 4 -9c-8 -13 -23 -35 -28 -51c-9 -28 -25 -103 -35 -161c0 -3 3 -7 5 -7c44 0 95 4 103 8c2 -4 -1 -17 -3 -20c-8 -13 -35 -28 -52 -33c-20 -5 -33 -5 -59 -7
c-3 0 -5 -4 -5 -6c-15 -79 -35 -187 -38 -225c-2 -25 1 -39 16 -39c25 0 63 33 88 62c1 0 5 -4 5 -7c0 -10 -5 -30 -9 -39c-29 -43 -110 -111 -179 -111c-36 0 -53 37 -47 99c2 37 32 191 46 260c0 2 -1 5 -2 5c-28 0 -39 1 -55 3c0 2 -1 6 0 9c6 10 38 41 43 42h20
c3 0 6 3 6 5l15 57c8 29 23 66 49 95c1 1 -2 3 -3 3c-176 9 -209 -37 -209 -97c0 -25 10 -46 24 -56c9 -6 14 -9 19 -16c0 -1 2 -14 -1 -18c-7 -17 -31 -39 -46 -51c-4 -4 -14 -3 -15 -2c-24 31 -50 38 -75 38c-23 0 -37 -17 -37 -32c0 -20 11 -36 84 -87
c48 -35 69 -65 69 -101c-1 -39 -24 -79 -79 -116c-42 -27 -85 -40 -126 -40c-59 0 -92 28 -92 54c0 21 14 51 31 75c3 5 18 6 18 4c21 -67 73 -81 103 -81c28 0 45 14 45 33c0 24 -12 38 -70 83c-49 36 -68 64 -68 100c0 29 9 68 51 106c24 22 63 41 96 51z" />
    <glyph glyph-name="Eng" unicode="&#x14a;" horiz-adv-x="695" 
d="M69 572c-2 8 2 29 6 34c51 0 121 -3 173 -3c18 0 35 0 46 1c4 -17 11 -30 26 -57c47 -83 180 -298 227 -373c1 0 2 1 4 1c20 115 43 274 48 331c3 28 -6 49 -37 55c-19 4 -41 7 -64 11c-4 6 0 31 5 34c41 0 74 -3 134 -3c49 0 88 3 117 3c3 -4 0 -31 -6 -34
c-15 -3 -27 -5 -40 -9c-29 -8 -43 -19 -52 -61c-19 -88 -43 -234 -65 -369c-7 -42 -15 -99 -21 -133c-27 -170 -83 -233 -177 -233c-13 0 -47 6 -57 24c-7 14 0 66 9 85l8 4c19 -12 54 -22 89 -22c39 0 56 22 59 56c3 23 -8 55 -19 75c-53 98 -229 405 -275 479
c-1 0 -3 -1 -4 -2c-16 -86 -52 -316 -57 -359c-4 -42 6 -59 36 -66c15 -3 32 -7 58 -10c3 -3 -1 -28 -5 -35c-32 0 -74 4 -125 4c-41 0 -88 -4 -128 -4c-2 8 0 29 4 34c24 4 34 5 53 10c29 7 39 25 48 60c14 54 52 251 75 395c3 20 -6 56 -31 65c-16 6 -38 9 -62 12z" />
    <glyph glyph-name="uni019F" unicode="&#x19f;" horiz-adv-x="697" 
d="M310 -18c-159 0 -246 98 -246 246c-1 96 31 220 126 301c64 63 144 92 233 92c160 0 243 -105 243 -253c0 -97 -27 -195 -85 -264c-72 -87 -167 -122 -271 -122zM511 283v1c-11 -4 -43 -9 -141 -9c-65 0 -137 3 -153 4c-1 0 -4 -1 -4 -7c-2 -18 -5 -47 -5 -70
c0 -120 43 -178 121 -178c29 0 58 11 80 31c48 44 85 136 102 228zM516 328v1c3 18 5 46 5 71c0 116 -40 182 -117 182c-93 0 -154 -119 -181 -240c0 -7 4 -10 7 -11c29 -4 128 -5 166 -5c41 0 93 0 120 2z" />
    <glyph glyph-name="uni018F" unicode="&#x18f;" horiz-adv-x="638" 
d="M275 -18c-157 0 -234 102 -231 221c0 22 11 54 13 59c40 17 102 16 195 19c48 1 177 0 202 0c1 0 3 1 5 4c3 20 4 33 4 46c0 139 -57 228 -172 228c-24 0 -47 -2 -65 -8c-32 -10 -65 -59 -94 -104c-7 -3 -31 15 -29 18c20 46 44 88 57 108c49 24 120 49 199 49
c155 0 246 -115 246 -274c0 -214 -127 -366 -330 -366zM300 20c96 0 140 126 151 212c0 3 -1 5 -3 5c-117 3 -211 3 -237 -6c-10 -3 -27 -22 -28 -59c-2 -79 31 -152 117 -152z" />
    <glyph glyph-name="uni021C" unicode="&#x21c;" horiz-adv-x="523" 
d="M372 486c-17 0 -118 1 -163 -2c-66 -4 -76 -11 -115 -69c-5 -1 -27 11 -29 15c28 60 52 116 73 179c24 -5 58 -7 91 -7h276c2 -4 1 -23 -1 -28c-20 -34 -131 -153 -192 -212c-3 -2 -2 -6 2 -7c104 -29 171 -89 171 -178c0 -179 -192 -279 -356 -279
c-57 0 -102 24 -127 106c0 6 12 25 19 28c45 -54 105 -81 167 -81c102 0 156 57 156 158c0 84 -57 137 -132 137c-26 0 -49 -5 -75 -18c-2 0 -7 2 -6 10c3 12 11 34 13 35l34 24c76 54 175 160 194 189z" />
    <glyph glyph-name="eng" unicode="&#x14b;" horiz-adv-x="495" 
d="M197 416c19 0 31 -25 20 -89c-3 -16 -6 -35 -9 -47c0 -1 2 -2 4 -1c32 42 87 97 143 122c20 9 38 15 58 15c45 0 47 -69 38 -122c-9 -69 -22 -143 -32 -197c-30 -156 -51 -196 -108 -262c-47 -55 -121 -100 -163 -100c-22 0 -53 9 -62 27c-2 3 -3 9 -2 13
c4 16 14 45 24 66c2 3 10 6 12 7c8 -6 49 -48 86 -48c25 0 40 6 62 116c23 115 48 250 63 365c5 26 -1 46 -13 46c-22 0 -63 -38 -99 -96c-12 -19 -30 -61 -46 -126c-11 -45 -10 -58 -6 -77c-22 -14 -102 -44 -115 -44c-6 0 -13 9 -12 18c5 48 51 243 58 293c1 7 2 19 -7 19
c-12 0 -34 -15 -52 -30c-2 1 -5 1 -5 3c-1 7 1 29 4 33c57 57 128 96 159 96z" />
    <glyph glyph-name="uni0138" unicode="&#x138;" horiz-adv-x="476" 
d="M31 288c-1 7 5 31 8 34c56 57 127 93 157 94c21 1 32 -25 20 -89c-7 -41 -14 -75 -23 -116c0 -2 2 -2 4 0c134 169 181 205 230 205c17 0 30 -5 37 -13c2 -11 -31 -93 -40 -98c-11 6 -33 16 -54 16c-42 0 -77 -46 -103 -79c-3 -3 -2 -5 0 -6c11 -8 26 -35 37 -55
c50 -88 67 -106 87 -106c13 0 34 11 64 42c1 0 5 -4 5 -8c1 -9 -4 -32 -5 -35c-44 -60 -107 -90 -142 -90c-27 0 -42 18 -55 39c-17 27 -37 73 -54 112c-6 16 -14 30 -19 34c-10 -49 -24 -115 -18 -141c-22 -14 -102 -44 -115 -44c-6 0 -13 9 -12 18c5 48 51 243 58 293
c1 7 2 19 -7 19c-12 0 -37 -15 -54 -30c-2 -1 -6 3 -6 4z" />
    <glyph glyph-name="uni0275" unicode="&#x275;" horiz-adv-x="466" 
d="M304 415c91 0 129 -65 129 -143c0 -102 -43 -197 -140 -249c-34 -18 -94 -36 -137 -36c-82 0 -119 65 -119 149c0 85 33 177 106 226c49 32 105 53 161 53zM255 371c-40 0 -77 -50 -92 -135c0 -4 1 -8 5 -8c25 -2 110 -3 142 0c1 11 2 20 2 30c0 55 -8 113 -57 113z
M159 182v-2c-1 -7 -2 -19 -2 -29c-3 -80 25 -114 62 -114c47 0 79 70 90 153c-16 -6 -48 -10 -73 -10c-26 0 -61 0 -77 2z" />
    <glyph glyph-name="uni0259" unicode="&#x259;" horiz-adv-x="395" 
d="M166 28c27 0 62 53 73 144c0 4 0 7 -4 6c-30 -9 -64 -25 -83 -43c-10 -10 -24 -30 -24 -57c0 -32 18 -50 38 -50zM108 -16c-58 0 -90 41 -90 84c1 48 44 79 95 101c40 18 92 37 121 46c3 0 7 6 7 8c1 5 2 10 2 16c0 50 -17 96 -71 96c-26 0 -68 -10 -119 -58
c-4 3 -10 27 -8 33c39 52 122 106 198 106c93 0 118 -80 118 -150c0 -108 -53 -189 -87 -218c-29 -25 -97 -64 -166 -64z" />
    <glyph glyph-name="uni021D" unicode="&#x21d;" horiz-adv-x="391" 
d="M260 302c-32 -8 -89 0 -120 -1c-39 -1 -52 -5 -86 -56c-7 -1 -23 13 -24 17c19 44 54 111 82 139c8 9 20 13 44 13c42 -1 106 -21 155 -21c9 0 13 3 42 41c2 0 10 0 11 -1c3 -3 5 -29 5 -36c-2 -23 -90 -139 -144 -203c-3 -3 0 -4 0 -6c78 -29 129 -81 129 -162
c0 -176 -191 -282 -313 -282c-45 0 -80 71 -82 87c0 4 15 21 20 23c35 -37 83 -53 116 -53c103 1 143 68 143 150c0 91 -52 132 -101 132c-11 0 -24 -2 -35 -8l-21 -11c-3 -2 -11 29 -7 31c59 52 136 134 186 207z" />
    <glyph glyph-name="u0026.dc" horiz-adv-x="727" 
d="M346 583c-36 0 -60 -37 -61 -83c-1 -47 16 -82 48 -118c0 -1 3 -3 6 -1c51 38 67 75 69 120c1 35 -20 82 -62 82zM241 289c-1 1 -4 1 -5 0c-34 -28 -48 -54 -48 -93c0 -69 51 -121 123 -121c37 0 61 10 86 29c3 2 3 5 2 7c-49 51 -111 123 -158 178zM640 405
c30 0 63 -17 76 -31c2 -5 -3 -26 -7 -29c-43 -5 -61 -17 -87 -44c-47 -55 -73 -92 -91 -115c0 -1 -1 -4 1 -6c44 -42 88 -87 104 -111c-4 -22 -54 -87 -87 -110c-3 -2 -17 -3 -20 0c-4 12 -13 26 -20 33c-27 32 -47 53 -77 83c-1 1 -4 2 -6 0c-63 -58 -123 -91 -195 -91
c-109 0 -169 76 -169 160c0 66 38 105 156 177c1 1 2 3 1 5c-21 32 -37 67 -37 118c3 104 100 177 190 177c71 0 129 -48 129 -121c0 -54 -40 -87 -139 -146c-1 -1 -2 -3 -1 -5c30 -31 86 -92 135 -136c2 -2 4 -1 5 1c18 29 36 67 61 111c37 66 59 78 78 80z" />
    <glyph glyph-name="u0026.db" horiz-adv-x="819" 
d="M689 481c-1 3 6 11 9 13c22 3 64 -7 76 -15c15 -10 24 -20 24 -56c0 -62 -66 -138 -159 -149l-4 -20c-15 -119 -131 -268 -331 -268c-152 0 -231 81 -231 182c0 63 48 112 145 152v4c-30 22 -50 56 -50 96c-2 44 23 92 70 128c47 37 99 55 152 55c56 0 98 -23 97 -49
c0 -13 -22 -52 -44 -68c-3 -3 -14 -3 -16 -1c-25 47 -54 73 -93 73c-35 0 -63 -30 -63 -73c0 -46 25 -84 109 -98c-1 -13 -37 -66 -42 -66c-17 0 -37 -4 -43 -6c-41 -8 -81 -41 -80 -98c-1 -102 83 -157 171 -157c111 0 170 65 170 152c0 22 -7 45 -15 53
c-14 21 -37 28 -56 28c-25 0 -41 -15 -41 -33c0 -14 4 -33 25 -60c-5 -12 -55 -48 -78 -49c-13 9 -25 28 -25 60c0 43 73 137 180 137c45 0 101 -9 139 -9c29 0 46 8 46 33c0 31 -10 71 -42 109z" />
    <glyph glyph-name="u0026.da" horiz-adv-x="1080" 
d="M262 436c40 0 77 -32 87 -92c89 62 107 130 108 200c0 21 -4 46 -11 76c-1 4 5 7 9 6c19 -1 52 -8 70 -20c16 -11 22 -35 21 -63c0 -116 -200 -270 -360 -347c-3 -2 -4 -5 -2 -8c15 -54 80 -139 246 -139c190 0 251 104 254 223c0 7 -3 36 -11 43c-7 11 -32 14 -56 17
c-52 6 -112 -3 -112 -47c0 -28 15 -47 36 -71c-6 -15 -66 -52 -80 -52c-24 16 -42 43 -41 75c0 58 68 108 120 130c41 18 81 23 135 23c8 4 58 31 71 31c10 0 20 -27 24 -37c2 -4 6 -6 14 -7c42 -8 124 -12 141 -12c75 0 95 15 96 52c1 20 -17 57 -42 82c5 14 64 61 79 61
c24 -17 39 -54 39 -80c-3 -112 -120 -177 -240 -177c-30 0 -54 1 -84 5c-18 -171 -217 -351 -444 -351c-147 0 -268 87 -268 243c0 50 15 110 58 155c28 29 99 81 143 81zM206 378c-33 0 -51 -67 -35 -140c1 -3 4 -4 7 -2c15 8 42 22 58 33c12 8 18 14 18 31
c0 44 -24 78 -48 78z" />
    <glyph glyph-name="a.a" 
d="M-32 31c57 10 69 14 97 59c56 95 132 235 164 300c10 18 16 35 22 52c7 0 17 -2 43 -2c27 0 39 2 48 2c2 -15 5 -30 8 -42c14 -68 49 -236 66 -299c17 -61 21 -62 80 -70c2 -3 0 -31 -4 -34c-19 0 -94 3 -128 3l-126 -3c-4 4 -5 32 1 34c10 2 32 5 42 9c8 4 10 13 9 17
c-3 20 -8 49 -15 76c0 3 -3 7 -6 7c-11 1 -39 1 -59 1c-30 0 -45 0 -56 -1c-3 0 -6 -3 -9 -7c-17 -33 -28 -51 -32 -65c-2 -10 -3 -23 15 -29c10 -3 25 -6 39 -8c2 -4 0 -30 -5 -34c-20 0 -57 3 -100 3c-49 0 -78 -3 -97 -3c-3 4 -2 30 3 34zM236 323
c-19 -40 -47 -95 -63 -127c-1 -2 0 -6 3 -7c7 -1 17 -1 38 -1c26 0 40 0 47 1c3 0 3 4 3 5c-3 25 -17 97 -25 129c-1 1 -2 1 -3 0z" />
    <glyph glyph-name="b.a" horiz-adv-x="524" 
d="M61 407c-3 5 1 32 6 35c21 0 64 -3 113 -3h156c73 0 138 -23 138 -95c0 -46 -38 -88 -99 -102c-1 -1 -1 -2 0 -4c61 -13 103 -50 103 -100c0 -56 -28 -97 -100 -125c-39 -15 -95 -20 -145 -20c-67 0 -169 5 -241 5c-3 4 0 31 4 33c24 3 41 5 54 9c11 4 19 13 24 33
c11 42 45 253 49 291c2 20 -2 30 -15 34c-11 3 -34 8 -47 9zM254 30c47 0 84 30 84 95c0 58 -39 85 -96 85h-14c-1 0 -5 -4 -5 -7c-9 -52 -15 -89 -20 -130c-1 -5 0 -15 5 -21c12 -19 38 -22 46 -22zM274 402c-5 0 -12 -1 -15 -2c-2 -1 -6 -6 -7 -10l-21 -134
c0 -4 2 -7 3 -7h20c69 0 94 39 94 83c0 41 -21 70 -74 70z" />
    <glyph glyph-name="c.a" horiz-adv-x="517" 
d="M279 -14c-153 0 -228 79 -228 202c1 103 52 190 154 235c43 20 97 29 158 29c26 0 57 -3 85 -7c22 -3 40 -5 53 -6c-7 -31 -20 -89 -25 -126c-4 -7 -29 -9 -34 -4c-3 52 -12 79 -33 91c-18 12 -40 17 -64 17c-86 0 -148 -85 -148 -217c0 -85 37 -157 132 -157
c14 0 26 2 39 6c25 8 51 29 90 74c6 -1 20 -16 20 -23c-25 -47 -66 -87 -90 -98c-20 -8 -60 -16 -109 -16z" />
    <glyph glyph-name="d.a" horiz-adv-x="573" 
d="M60 407c-3 6 3 33 7 35c16 0 84 -3 106 -3c52 0 79 1 146 1c74 0 124 -18 160 -54c33 -33 52 -79 52 -137c0 -80 -33 -154 -95 -200c-67 -49 -135 -57 -213 -57c-53 0 -130 5 -206 6h-24c-4 4 -2 29 3 33c13 1 31 4 45 6c17 4 27 14 32 37c10 35 46 262 49 294
c1 18 -1 27 -18 31c-9 4 -31 6 -44 8zM280 402c-6 0 -13 -1 -17 -3c-4 -1 -6 -4 -8 -9c-8 -37 -45 -274 -49 -316c0 -6 3 -18 8 -25c13 -13 35 -19 48 -19c26 0 49 9 70 31c42 41 62 114 62 180c1 62 -14 111 -48 140c-24 19 -47 21 -66 21z" />
    <glyph glyph-name="e.a" horiz-adv-x="485" 
d="M61 407c-2 7 2 31 6 35c31 0 85 -3 121 -3h166c39 0 75 0 101 4c1 -1 2 -4 2 -5c-9 -22 -20 -72 -28 -117c-5 -6 -32 -6 -36 -1c0 21 -4 44 -8 56c-5 15 -19 18 -27 18c-20 2 -78 2 -93 1c-4 -1 -10 -8 -11 -12c-8 -40 -16 -94 -22 -134c0 -2 3 -4 4 -4c20 0 50 -1 75 1
c14 1 21 2 34 26l12 26c4 3 31 0 35 -4c-3 -15 -11 -46 -15 -73c-4 -25 -9 -59 -10 -80c-4 -6 -33 -7 -37 -1c-1 12 -3 21 -5 31c-3 16 -8 22 -23 24c-13 1 -51 1 -73 1c-2 0 -6 -5 -6 -6c-7 -44 -14 -83 -18 -113c-2 -17 7 -27 14 -29c15 -4 51 -4 93 -4c34 0 43 5 61 23
c14 15 37 45 50 67c8 2 29 -9 31 -17c-5 -20 -28 -74 -44 -99c-7 -12 -17 -21 -45 -21c-62 0 -151 3 -235 3c-40 0 -101 -3 -141 -3c-2 6 -1 31 5 35c29 3 41 5 52 8c14 4 25 13 29 37c11 47 43 233 49 293c1 18 -5 27 -18 30c-12 3 -29 6 -45 7z" />
    <glyph glyph-name="f.a" horiz-adv-x="460" 
d="M60 407c-2 5 1 31 6 35c29 0 83 -3 129 -3h175c54 0 82 3 96 5c1 0 3 -4 3 -6c-10 -24 -21 -71 -31 -121c-5 -4 -32 -4 -35 -1c0 21 -2 38 -6 52c-3 19 -17 25 -33 26c-23 2 -88 3 -102 0c-4 -1 -8 -8 -9 -12c-7 -37 -15 -89 -23 -144c0 -2 2 -4 4 -4c21 0 69 -1 93 1
c18 1 25 9 32 22c6 10 11 22 15 34c6 2 32 0 37 -3c-4 -17 -11 -46 -15 -78c-6 -33 -8 -60 -11 -80c-4 -6 -30 -6 -35 -3l-4 33c-3 16 -12 24 -23 26c-17 2 -77 3 -97 3c-1 0 -5 -3 -5 -6c-7 -46 -12 -75 -15 -106c-3 -23 5 -33 23 -38c13 -3 32 -5 51 -8
c2 -7 -1 -29 -8 -34c-32 0 -101 3 -143 3c-51 0 -97 -3 -136 -3c-4 6 -1 31 4 34c12 2 36 5 46 8c20 6 27 14 31 35c12 50 44 254 49 290c2 25 -5 33 -20 36c-11 4 -27 5 -43 7z" />
    <glyph glyph-name="g.a" horiz-adv-x="560" 
d="M476 43c1 -5 -3 -22 -8 -25c-31 -9 -117 -31 -180 -31c-160 0 -238 71 -238 198c0 105 58 200 170 244c41 15 85 23 151 23c33 0 73 -3 98 -7c27 -4 42 -6 56 -7c-10 -29 -25 -91 -31 -130c-3 -6 -34 -7 -37 -1c1 44 -6 72 -23 87c-24 18 -49 23 -80 23
c-90 0 -158 -98 -158 -236c-1 -98 36 -155 104 -155c3 0 9 0 17 2c5 2 11 13 14 22c5 18 11 57 14 77c2 24 -1 35 -21 40c-14 4 -25 5 -45 8c-5 4 -2 33 5 35c21 0 63 -3 133 -3c52 0 90 3 106 3c5 -3 3 -32 -4 -36c-7 -1 -17 -4 -24 -6c-15 -4 -20 -10 -26 -42
c-5 -20 -11 -59 -10 -68c0 -6 4 -8 17 -15z" />
    </font>
</defs>
</svg>
